#VERSION:0.82;
#TITLE:LIAR GAME (REBORN-Edit);
#SUBTITLE:;
#ARTIST:中田ヤスタカ;
#TITLETRANSLIT:;
#SUBTITLETRANSLIT:;
#ARTISTTRANSLIT:Yasutaka Nakata;
#GENRE:Electronic;
#ORIGIN:;
#CREDIT:chewi;
#BANNER:LIAR GAME (REBORN-Edit).png;
#BACKGROUND:LIAR GAME (REBORN-Edit)-bg.png;
#PREVIEWVID:;
#JACKET:LIAR GAME (REBORN-Edit)-jacket.png;
#CDIMAGE:;
#DISCIMAGE:;
#LYRICSPATH:;
#CDTITLE:cdtitle.png;
#MUSIC:LIAR GAME (REBORN-Edit).ogg;
#OFFSET:-0.441000;
#SAMPLESTART:79.161003;
#SAMPLELENGTH:15.000000;
#SELECTABLE:YES;
#BPMS:0.000=128.000;
#STOPS:;
#DELAYS:;
#WARPS:;
#TIMESIGNATURES:0.000=4=4;
#TICKCOUNTS:0.000=4;
#COMBOS:0.000=1;
#SPEEDS:0.000=1.000=0.000=0;
#SCROLLS:0.000=1.000;
#FAKES:;
#LABELS:0.000=Song Start;
#BGCHANGES:;
#KEYSOUNDS:;
#ATTACKS:
;

//---------------dance-single - ----------------
#NOTEDATA:;
#CHARTNAME:;
#STEPSTYPE:dance-single;
#DESCRIPTION:;
#CHARTSTYLE:;
#DIFFICULTY:Beginner;
#METER:2;
#RADARVALUES:0.113890,0.149159,0.034289,0.085724,0.000000,79.000000,4.000000,10.000000,0.000000,0.000000,0.000000,0.000000,0.000000,0.113890,0.149159,0.034289,0.085724,0.000000,79.000000,4.000000,10.000000,0.000000,0.000000,0.000000,0.000000,0.000000;
#CREDIT:;
#NOTES:
// measure 0
0000
0000
0000
0000
,  // measure 1
0000
0000
0000
0000
,  // measure 2
0000
0000
0000
0000
,  // measure 3
0000
0000
0000
0000
,  // measure 4
0020
0000
0000
0030
,  // measure 5
0010
0000
0000
0000
,  // measure 6
0200
0000
0000
0300
,  // measure 7
0100
0000
0000
0000
,  // measure 8
1000
0000
1000
0000
,  // measure 9
0001
0000
0001
0000
,  // measure 10
1000
0000
1000
0000
,  // measure 11
0001
0000
0000
0000
,  // measure 12
0100
0000
0100
0000
,  // measure 13
0010
0000
0010
0000
,  // measure 14
0100
0000
0100
0000
,  // measure 15
0010
0000
0000
0000
,  // measure 16
2000
0000
0000
3000
,  // measure 17
1000
1000
1000
0000
,  // measure 18
0002
0000
0000
0003
,  // measure 19
0001
0001
0001
0000
,  // measure 20
0200
0000
0000
0300
,  // measure 21
0100
0100
0100
0000
,  // measure 22
0020
0000
0000
0030
,  // measure 23
0010
0010
0010
0000
,  // measure 24
0110
0000
0000
0000
,  // measure 25
0000
0000
0000
0000
,  // measure 26
1001
0000
0000
0000
,  // measure 27
0000
0000
0000
0000
,  // measure 28
0110
0000
0000
0000
,  // measure 29
0000
0000
0000
0000
,  // measure 30
1001
0000
0000
0000
,  // measure 31
0000
0000
0000
0000
,  // measure 32
2000
0000
0000
0000
,  // measure 33
0000
0000
0000
3000
,  // measure 34
0002
0000
0000
0000
,  // measure 35
0000
0000
0000
0003
,  // measure 36
0200
0000
0000
0000
,  // measure 37
0000
0000
0000
0300
,  // measure 38
0020
0000
0000
0000
,  // measure 39
0000
0000
0000
0030
,  // measure 40
0010
0010
0010
0000
,  // measure 41
0100
0100
0100
0000
,  // measure 42
1000
0000
1000
0000
,  // measure 43
1000
0000
1000
0000
,  // measure 44
0001
0000
0001
0000
,  // measure 45
0001
0000
0000
0000
,  // measure 46
0100
0000
0100
0000
,  // measure 47
0100
0000
0100
0000
,  // measure 48
0010
0000
0010
0000
,  // measure 49
0010
0000
0000
0000
,  // measure 50
1000
0000
0001
0000
,  // measure 51
1000
0000
1000
0000
,  // measure 52
0001
0000
1000
0000
,  // measure 53
0001
0000
0001
0000
,  // measure 54
0100
0000
0010
0000
,  // measure 55
0100
0000
0100
0000
,  // measure 56
0100
0000
0010
0000
,  // measure 57
0010
0000
0010
0000
,  // measure 58
0010
0000
0000
0000
;

//---------------dance-single - ----------------
#NOTEDATA:;
#CHARTNAME:;
#STEPSTYPE:dance-single;
#DESCRIPTION:;
#CHARTSTYLE:;
#DIFFICULTY:Easy;
#METER:5;
#RADARVALUES:0.197164,0.198879,0.025717,0.068579,0.000000,150.000000,3.000000,8.000000,0.000000,0.000000,0.000000,0.000000,0.000000,0.197164,0.198879,0.025717,0.068579,0.000000,150.000000,3.000000,8.000000,0.000000,0.000000,0.000000,0.000000,0.000000;
#CREDIT:;
#NOTES:
// measure 0
0000
0000
0000
0000
,  // measure 1
0000
0000
0000
0000
,  // measure 2
0000
0000
0000
0000
,  // measure 3
0000
0000
0000
0000
,  // measure 4
0020
0000
0000
0030
,  // measure 5
0002
0000
0000
0003
,  // measure 6
0200
0000
0000
0300
,  // measure 7
2000
0000
0000
3000
,  // measure 8
1000
0010
0010
0000
,  // measure 9
0001
0010
0010
0000
,  // measure 10
1000
0100
0100
0000
,  // measure 11
0001
0100
0100
0000
,  // measure 12
0100
0010
0100
0000
,  // measure 13
0010
0100
0010
0000
,  // measure 14
1000
0001
1000
0000
,  // measure 15
0001
1000
0001
0000
,  // measure 16
1000
0100
0010
0000
,  // measure 17
0100
0010
0001
0000
,  // measure 18
0001
0100
0010
0000
,  // measure 19
0100
0010
1000
0000
,  // measure 20
0001
0001
1000
1000
,  // measure 21
0001
1000
0100
0000
,  // measure 22
1000
1000
0001
0001
,  // measure 23
1000
0001
0100
0000
,  // measure 24
0200
0000
0000
0000
,  // measure 25
0000
0000
0000
0000
,  // measure 26
2300
0000
0000
0000
,  // measure 27
0000
0000
0000
0000
,  // measure 28
3020
0000
0000
0000
,  // measure 29
0000
0000
0000
0000
,  // measure 30
0032
0000
0000
0000
,  // measure 31
0000
0000
0000
0000
,  // measure 32
0103
0100
0100
0100
,  // measure 33
0100
0100
0100
0000
,  // measure 34
0010
0010
0010
0010
,  // measure 35
0010
0010
0010
0000
,  // measure 36
0001
0001
0001
0001
,  // measure 37
0001
0001
0001
0000
,  // measure 38
1000
1000
1000
1000
,  // measure 39
1000
1000
1000
0000
,  // measure 40
1001
1001
1001
0000
,  // measure 41
0100
0000
0000
0000
,  // measure 42
0010
0100
0010
0000
,  // measure 43
0100
0010
0100
0000
,  // measure 44
0010
0100
0001
0000
,  // measure 45
0010
0100
1000
0000
,  // measure 46
1000
0100
0100
0100
,  // measure 47
0100
0001
0100
0100
,  // measure 48
0100
1000
0100
0001
,  // measure 49
0100
1000
0010
0001
,  // measure 50
0010
0100
0010
0100
,  // measure 51
0001
0100
0001
0000
,  // measure 52
0010
0100
0010
0100
,  // measure 53
1000
0100
1000
0100
,  // measure 54
1000
0001
0001
0001
,  // measure 55
0100
0010
0010
0010
,  // measure 56
1000
0010
0001
0010
,  // measure 57
1000
0100
0001
0010
,  // measure 58
1000
0000
0000
0000
;

//---------------dance-single - ----------------
#NOTEDATA:;
#CHARTNAME:;
#STEPSTYPE:dance-single;
#DESCRIPTION:;
#CHARTSTYLE:;
#DIFFICULTY:Medium;
#METER:8;
#RADARVALUES:0.269417,0.348038,0.120013,0.085724,0.000000,196.000000,14.000000,10.000000,0.000000,0.000000,0.000000,0.000000,0.000000,0.269417,0.348038,0.120013,0.085724,0.000000,196.000000,14.000000,10.000000,0.000000,0.000000,0.000000,0.000000,0.000000;
#CREDIT:;
#NOTES:
// measure 0
0000
0000
0000
0000
,  // measure 1
0000
0000
0000
0000
,  // measure 2
0000
0000
0000
0000
,  // measure 3
0000
0000
0000
0000
,  // measure 4
1000
0100
0001
0100
,  // measure 5
1000
0010
0001
0010
,  // measure 6
0020
0030
0200
0300
,  // measure 7
2000
3002
2003
3000
,  // measure 8
0001
0001
0100
0100
,  // measure 9
0010
0010
0100
0100
,  // measure 10
0001
0001
0100
0100
,  // measure 11
0010
0010
0100
0100
,  // measure 12
0001
0001
1000
1000
,  // measure 13
0100
0100
0010
0010
,  // measure 14
0100
0100
1000
1000
,  // measure 15
0001
0001
0010
0010
,  // measure 16
0001
0001
0001
0000
0010
0000
0100
0000
,  // measure 17
1000
1000
1000
0000
0100
0000
0010
0000
,  // measure 18
0001
0001
0001
0000
0100
0000
0010
0000
,  // measure 19
1000
1000
1000
0000
0010
0000
0100
0000
,  // measure 20
0010
0010
0010
0000
0110
0000
0110
0000
,  // measure 21
0100
0100
0100
0000
0110
0000
0110
0000
,  // measure 22
1000
1000
1000
0000
1001
0000
1001
0000
,  // measure 23
0001
0001
0001
0000
1001
0000
1001
0000
,  // measure 24
2002
0000
0000
0000
,  // measure 25
0000
0000
0000
3000
,  // measure 26
0020
0000
0000
0000
,  // measure 27
0000
0000
0000
0003
,  // measure 28
0200
0000
0000
0000
,  // measure 29
0000
0000
0000
0030
,  // measure 30
2000
0000
0000
0000
,  // measure 31
0000
0000
0000
3300
,  // measure 32
1000
0100
0010
0001
,  // measure 33
1000
0100
1100
0000
,  // measure 34
0001
0100
0010
1000
,  // measure 35
0001
0100
0101
0000
,  // measure 36
0100
0100
0010
0010
,  // measure 37
1000
0001
1001
0000
,  // measure 38
0001
0000
0001
0000
1000
0001
1000
0000
,  // measure 39
0001
0001
0001
0001
1000
1000
1000
1000
,  // measure 40
0001
1000
0001
0000
,  // measure 41
0110
0000
0000
0000
,  // measure 42
0100
0010
1000
0100
,  // measure 43
0001
0010
0100
0001
,  // measure 44
0010
0100
0001
0010
,  // measure 45
1000
0100
0010
0100
,  // measure 46
1000
1000
1000
0000
1000
0000
1000
0000
,  // measure 47
0001
0001
0001
0000
0001
0000
0001
0000
,  // measure 48
0100
0100
0100
0000
0100
0000
0100
0000
,  // measure 49
0010
0010
0010
0000
0000
0000
0000
0000
,  // measure 50
0010
0100
0001
0010
,  // measure 51
0100
0001
0010
1000
,  // measure 52
0100
0010
1000
0100
,  // measure 53
0010
0100
1000
0001
,  // measure 54
0010
0100
0010
0100
,  // measure 55
1000
0010
0100
0010
,  // measure 56
1000
0001
0100
0010
,  // measure 57
0100
0100
0100
0000
0010
0010
0010
0000
,  // measure 58
1001
0000
0000
0000
;

//---------------dance-single - ----------------
#NOTEDATA:;
#CHARTNAME:;
#STEPSTYPE:dance-single;
#DESCRIPTION:;
#CHARTSTYLE:;
#DIFFICULTY:Hard;
#METER:13;
#RADARVALUES:0.559653,0.621496,0.180020,0.034289,0.364325,432.000000,21.000000,4.000000,0.000000,0.000000,0.000000,0.000000,0.000000,0.559653,0.621496,0.180020,0.034289,0.364325,432.000000,21.000000,4.000000,0.000000,0.000000,0.000000,0.000000,0.000000;
#CREDIT:;
#NOTES:
// measure 0
0000
0000
0000
0000
,  // measure 1
0000
0000
0000
0000
,  // measure 2
0000
0000
0000
0000
,  // measure 3
0000
0000
0000
0000
,  // measure 4
1000
0000
0000
0000
0100
0000
0000
0000
0010
0001
0000
0000
0100
0000
0000
0000
,  // measure 5
0001
0000
0000
0000
0100
0000
0000
0000
0010
1000
0000
0000
0001
0000
0000
0000
,  // measure 6
1000
0001
1000
0001
0010
0100
0010
0100
,  // measure 7
0220
0000
0000
0330
,  // measure 8
0001
0010
0000
0010
0001
0000
0000
0000
0010
0000
0100
0000
1000
0000
0010
0000
,  // measure 9
1000
0100
0000
0100
1000
0000
0000
0000
0001
0000
1000
0000
0010
0000
0100
0000
,  // measure 10
0001
0100
0000
0100
0001
0000
0000
0000
0100
0000
0010
0000
1000
0000
0001
0000
,  // measure 11
1000
0010
0000
0010
0100
0000
0000
0000
0001
0000
0010
0000
0100
0000
1000
0000
,  // measure 12
0001
0010
0000
0010
0001
0000
0000
0000
0010
0000
0100
0000
1000
0000
0001
0000
,  // measure 13
1000
0001
0000
0001
1000
0000
0000
0000
0010
0000
0100
0000
0010
0000
0100
0000
,  // measure 14
0010
1000
0000
1000
0010
0000
0000
0000
0100
0000
0001
0000
0010
0000
0100
0000
,  // measure 15
1000
0100
1000
0000
1000
0000
0001
0000
0001
0010
0001
0000
1000
0000
0001
0000
,  // measure 16
1000
0000
0100
0000
0010
0000
0100
0000
1000
0000
0001
1000
0000
1000
0001
0000
,  // measure 17
0100
0000
0010
0000
1000
0000
0001
0000
0100
0000
0010
0100
0000
0100
0001
0000
,  // measure 18
0010
0000
0100
0000
1000
0000
0001
0000
1000
0000
0100
1000
0000
1000
0100
0000
,  // measure 19
1000
0000
0001
0000
0100
0000
0010
0000
0100
0000
0001
0100
0000
0100
0001
0000
,  // measure 20
0010
0000
0100
0000
1000
0000
0010
0000
1000
0000
0100
1000
0000
1000
0001
0000
,  // measure 21
1000
0000
0100
0000
0010
0000
0100
0000
0001
0000
0100
0001
0000
0001
0100
0000
,  // measure 22
0010
0000
0001
0000
0100
0000
0010
0000
1000
0000
0001
1000
0000
1000
0001
0000
,  // measure 23
0001
0010
0000
0010
0001
0000
1000
0000
0100
1000
0000
1000
0100
0000
1000
0000
,  // measure 24
1001
0100
0010
0000
1000
0000
0010
0000
,  // measure 25
0100
0000
0001
0000
1000
0100
0010
0001
,  // measure 26
1001
0100
1000
0000
0001
0000
0010
0000
,  // measure 27
0001
0000
0100
0000
0010
1000
0001
0100
,  // measure 28
0100
0010
1000
0010
0100
0001
0100
0000
,  // measure 29
0001
1000
0100
1000
0001
0100
0001
0000
,  // measure 30
0100
0010
1000
0001
0010
0100
1000
0000
,  // measure 31
0100
1000
0001
0010
0100
0010
0001
0000
,  // measure 32
1000
0100
1000
0100
1000
0100
1000
0100
,  // measure 33
0010
0100
0010
0100
0010
0010
0010
0000
,  // measure 34
0010
0001
0010
0001
0010
0001
0010
0001
,  // measure 35
0100
0001
0100
0001
0100
0100
0100
0000
,  // measure 36
0100
0010
0100
0010
1000
0001
1000
0001
,  // measure 37
1000
0100
0010
0100
1000
0001
1001
0000
,  // measure 38
0001
0100
0010
0100
0101
0000
1010
0000
,  // measure 39
1000
0000
1000
0000
1000
0000
1000
0000
1000
0001
1000
0001
1000
0001
1000
0001
,  // measure 40
2000
0100
3002
0010
0013
0010
0010
0000
,  // measure 41
0100
0010
0100
0010
0100
0010
0100
0010
0100
0000
0000
0000
0100
0000
0000
0000
,  // measure 42
1000
0100
0000
0100
1000
0000
0000
0000
0100
0000
0010
0000
0001
0000
0100
0000
,  // measure 43
0001
0010
0000
0010
0001
0000
0000
0000
1000
0000
0001
0000
0100
0000
0010
0000
,  // measure 44
1000
0010
0000
0010
1000
0000
0000
0000
0010
0000
0100
0000
0001
0000
1000
0000
,  // measure 45
0001
0100
0000
0100
0010
0000
0000
0000
1000
0000
0100
0000
0010
0000
0001
0000
,  // measure 46
1000
0100
0000
0100
1000
0000
0000
0100
1000
0000
0000
0100
1000
0000
0000
0100
,  // measure 47
1000
0000
0000
0001
0010
0000
0000
0001
0010
0000
0000
0001
0010
0000
0000
0001
,  // measure 48
0010
0000
0000
0100
0010
0000
0000
0100
0010
0000
0000
0100
0010
0000
0000
0100
,  // measure 49
0010
0000
0100
0010
0100
0010
0100
0010
0100
1000
0001
1000
0001
1000
0001
1000
,  // measure 50
0100
0000
0010
0000
0001
0000
1000
0000
0001
1000
0000
1000
0001
0000
0000
0000
,  // measure 51
0100
0000
0010
0000
0100
0000
0010
0000
0100
0001
0000
0001
0100
0000
0000
0000
,  // measure 52
0010
0000
1000
0000
0100
0000
0010
0001
0010
0001
0010
0001
1000
0001
1000
0001
,  // measure 53
1000
1000
1100
1100
0001
0001
0101
0101
,  // measure 54
0001
0000
0010
0000
1100
0000
0101
0000
0100
0000
0010
0000
1000
0001
0000
0001
,  // measure 55
0010
0010
0110
0110
1000
1000
1001
1001
,  // measure 56
0100
0100
0110
0110
1000
0100
0010
0100
,  // measure 57
0010
0000
0011
0000
1000
0000
1100
0000
0000
0001
1000
0000
0001
1000
0001
0000
,  // measure 58
1001
0000
0000
0000
;
