#VERSION:0.83;
#TITLE:LET GORGEOUS MOVE 2012;
#SUBTITLE:;
#ARTIST:N.M.R feat. THE SURRENDERS;
#TITLETRANSLIT:;
#SUBTITLETRANSLIT:;
#ARTISTTRANSLIT:;
#GENRE:Masterpiece;
#ORIGIN:;
#CREDIT:chewi;
#BANNER:LET GORGEOUS MOVE 2012.png;
#BACKGROUND:LET GORGEOUS MOVE 2012-bg.png;
#PREVIEWVID:;
#JACKET:LET GORGEOUS MOVE 2012-jacket.png;
#CDIMAGE:;
#DISCIMAGE:;
#LYRICSPATH:;
#CDTITLE:cdtitle.png;
#MUSIC:LET GORGEOUS MOVE 2012.ogg;
#OFFSET:-0.082000;
#SAMPLESTART:44.479652;
#SAMPLELENGTH:12.000000;
#SELECTABLE:YES;
#BPMS:0.000=135.138;
#STOPS:;
#DELAYS:;
#WARPS:;
#TIMESIGNATURES:0.000=4=4;
#TICKCOUNTS:0.000=4;
#COMBOS:0.000=1;
#SPEEDS:0.000=1.000=0.000=0;
#SCROLLS:0.000=1.000;
#FAKES:;
#LABELS:0.000=Song Start;
#BGCHANGES:;
#KEYSOUNDS:;
#ATTACKS:
;

//---------------dance-single - ----------------
#NOTEDATA:;
#CHARTNAME:;
#STEPSTYPE:dance-single;
#DESCRIPTION:;
#CHARTSTYLE:;
#DIFFICULTY:Challenge;
#METER:12;
#RADARVALUES:0.631261,0.693946,0.426181,0.190660,0.302813,394.000000,356.000000,38.000000,17.000000,0.000000,0.000000,0.000000,0.000000,0.000000,0.631261,0.693946,0.426181,0.190660,0.302813,394.000000,356.000000,38.000000,17.000000,0.000000,0.000000,0.000000,0.000000,0.000000;
#CREDIT:chewi;
#NOTES:
0000
0000
0000
0000
,
0000
0000
0000
0000
,
0000
0000
0000
0000
,
0000
0000
0000
0000
,
1000
0000
0001
1000
0100
0000
1000
0001
0100
0000
0101
0000
0000
0000
0000
0000
,
0100
0000
0010
1000
0100
0000
1000
0010
0100
0000
0101
0000
0000
0000
0000
0000
,
1000
0000
0100
0010
0100
0000
1000
0001
1000
0000
1001
0000
0000
0000
0000
0000
,
1000
0000
0010
0100
0001
0000
0100
0010
1000
0000
0001
0000
0001
0000
0001
0000
,
1000
0100
0010
1000
0010
0100
0010
1000
,
0010
0100
1000
0001
0100
0010
1000
0001
,
1000
0000
0001
1000
0001
1000
0001
0000
1000
0001
1000
0001
1000
0000
0001
1000
,
0100
0010
0011
1000
0010
0100
0101
1000
,
0001
0010
0100
0001
0100
0010
0100
0001
,
0100
0010
0001
1000
0010
0100
0001
1000
,
0001
0000
1000
0001
1000
0001
1000
0000
0001
1000
0001
1000
0001
0000
1000
0001
,
0010
0100
1100
0001
0100
0010
1010
0001
,
2000
0100
0010
0001
0100
0010
0001
0100
,
0010
0000
0001
0000
0100
0000
0010
0000
0001
0000
0100
0000
0000
0010
0000
0000
,
3100
0100
1000
0001
0100
0001
1000
0100
,
1000
0001
0100
0010
1000
0001
0010
0100
,
1000
0001
0002
0010
0100
1000
0010
0100
,
1000
0010
0100
1000
0010
0100
1000
0013
,
2000
0100
0010
0001
0100
0010
0001
0100
,
0010
0001
0100
0010
0001
0100
0010
3001
,
1000
0100
0001
0100
1000
0100
1000
0100
,
2000
3020
0230
0302
,
0013
0000
0100
0010
0100
0010
0100
0000
0010
0100
0010
0100
0010
0000
0100
0000
,
0010
0001
0011
0000
1000
0010
1010
0100
,
0001
0010
1000
0010
0001
0010
0001
0010
,
0001
0010
0000
0000
0001
1000
0000
0000
0001
0100
0000
0000
0001
1000
0100
0000
,
0010
0000
0100
0010
0100
0010
0100
0000
0010
0100
0010
0100
0010
0000
0100
0000
,
0010
0001
0011
0000
1000
0010
1010
0101
,
0010
1000
0100
1000
0010
1000
0010
1000
,
0020
0032
0023
2030
,
3001
0000
1000
0001
1000
0001
1000
0000
0001
1000
0001
1000
0001
0000
1000
0000
,
0001
0100
0101
0000
0100
0010
1010
1000
,
0010
1000
0100
1000
0010
1000
0010
1000
,
0020
0000
0230
0000
0302
0000
0203
0001
,
0310
0000
0001
1000
0001
1000
0001
0000
1000
0001
1000
0001
1000
0000
0001
0000
,
1000
0010
1010
0000
0100
1000
1100
0011
,
0110
0000
0000
0110
0000
0000
0110
0000
0000
0110
0000
0000
0110
0000
0000
0000
,
0000
0000
1001
0000
0000
1001
0000
0000
1001
0000
0000
1001
0000
0000
0000
0000
,
0000
0000
0000
0101
0000
0000
0101
0000
0000
0101
0000
0000
0101
0000
0000
0000
,
0000
0000
1100
0000
0000
0000
1100
0000
0000
1100
0000
0000
1100
0000
0000
0000
,
0001
0010
1000
0010
0001
0010
0001
0010
,
0001
0010
0000
0000
0001
1000
0000
0000
0001
0100
0000
0000
0001
1000
0100
0000
,
0010
0000
0100
0010
0100
0010
0100
0000
0010
0100
0010
0100
0010
0000
0100
0000
,
0010
0001
0011
1000
0010
1000
1010
0101
,
2002
0000
0000
0000
,
0000
0000
3003
0000
;
