#VERSION:0.82;
#TITLE:❅ LAST MINUTE ❅;
#SUBTITLE:;
#ARTIST:♡kitty♡;
#TITLETRANSLIT:LAST MINUTE;
#SUBTITLETRANSLIT:;
#ARTISTTRANSLIT:kitty;
#GENRE:Deep Swag Trance;
#ORIGIN:;
#CREDIT:chewi;
#BANNER:LAST MINUTE.png;
#BACKGROUND:LAST MINUTE-bg.png;
#PREVIEWVID:;
#JACKET:LAST MINUTE-jacket.png;
#CDIMAGE:;
#DISCIMAGE:;
#LYRICSPATH:;
#CDTITLE:cdtitle.png;
#MUSIC:LAST MINUTE.ogg;
#OFFSET:-0.575000;
#SAMPLESTART:38.660999;
#SAMPLELENGTH:15.000000;
#SELECTABLE:YES;
#BPMS:0.000=126.000;
#STOPS:;
#DELAYS:;
#WARPS:;
#TIMESIGNATURES:0.000=4=4;
#TICKCOUNTS:0.000=4;
#COMBOS:0.000=1;
#SPEEDS:0.000=1.000=0.000=0;
#SCROLLS:0.000=1.000;
#FAKES:;
#LABELS:0.000=Song Start;
#BGCHANGES:;
#KEYSOUNDS:;
#ATTACKS:
;

//---------------dance-single - ----------------
#NOTEDATA:;
#CHARTNAME:;
#STEPSTYPE:dance-single;
#DESCRIPTION:;
#CHARTSTYLE:;
#DIFFICULTY:Beginner;
#METER:2;
#RADARVALUES:0.109285,0.125362,0.037317,0.046646,0.000000,73.000000,4.000000,5.000000,0.000000,0.000000,0.000000,0.000000,0.000000,0.109285,0.125362,0.037317,0.046646,0.000000,73.000000,4.000000,5.000000,0.000000,0.000000,0.000000,0.000000,0.000000;
#CREDIT:;
#NOTES:
// measure 0
0000
0000
0000
0000
,  // measure 1
0000
0000
0000
0000
,  // measure 2
0000
0000
0000
0000
,  // measure 3
0000
0000
0000
0000
,  // measure 4
1000
0000
0000
0000
,  // measure 5
0100
0000
0000
0000
,  // measure 6
0001
0000
0000
0000
,  // measure 7
0010
0000
0000
0000
,  // measure 8
1000
0000
0000
0000
,  // measure 9
0010
0000
0000
0000
,  // measure 10
0001
0000
0000
0000
,  // measure 11
0100
0000
0000
0000
,  // measure 12
1000
0000
1000
0000
,  // measure 13
1000
0000
0000
0000
,  // measure 14
0001
0000
0001
0000
,  // measure 15
0001
0000
0000
0000
,  // measure 16
0010
0000
0010
0000
,  // measure 17
0010
0000
0000
0000
,  // measure 18
0100
0000
0100
0000
,  // measure 19
0100
0000
0000
0000
,  // measure 20
0200
0000
0000
0300
,  // measure 21
0100
0000
0000
0000
,  // measure 22
0100
0100
0000
0000
,  // measure 23
0100
0100
0000
0000
,  // measure 24
0020
0000
0000
0030
,  // measure 25
0010
0000
0000
0000
,  // measure 26
0010
0010
0000
0000
,  // measure 27
0010
0010
0000
0000
,  // measure 28
0002
0000
0000
0003
,  // measure 29
0001
0000
0000
0000
,  // measure 30
0001
0001
0000
0000
,  // measure 31
0001
0001
0000
0000
,  // measure 32
2000
0000
0000
3000
,  // measure 33
1000
0000
0000
0000
,  // measure 34
1000
1000
0000
0000
,  // measure 35
1000
1000
0000
0000
,  // measure 36
1000
0000
1000
0000
,  // measure 37
1000
0000
0000
0000
,  // measure 38
0001
0000
0001
0000
,  // measure 39
0001
0000
0000
0000
,  // measure 40
0100
0000
0100
0000
,  // measure 41
0100
0000
0000
0000
,  // measure 42
0010
0000
0010
0000
,  // measure 43
0010
0000
0000
0000
,  // measure 44
0110
0000
0000
0000
,  // measure 45
0100
0100
0100
0000
,  // measure 46
0110
0000
0000
0000
,  // measure 47
0010
0010
0010
0000
,  // measure 48
1001
0000
0000
0000
,  // measure 49
1000
1000
1000
0000
,  // measure 50
1001
0000
0000
0000
,  // measure 51
0001
0001
0001
0000
,  // measure 52
0002
0000
0000
0000
,  // measure 53
0000
0000
0000
0003
;

//---------------dance-single - ----------------
#NOTEDATA:;
#CHARTNAME:;
#STEPSTYPE:dance-single;
#DESCRIPTION:;
#CHARTSTYLE:;
#DIFFICULTY:Easy;
#METER:4;
#RADARVALUES:0.202578,0.200578,0.083963,0.055975,0.000000,137.000000,9.000000,6.000000,0.000000,0.000000,0.000000,0.000000,0.000000,0.202578,0.200578,0.083963,0.055975,0.000000,137.000000,9.000000,6.000000,0.000000,0.000000,0.000000,0.000000,0.000000;
#CREDIT:;
#NOTES:
// measure 0
0000
0000
0000
0000
,  // measure 1
0000
0000
0000
0000
,  // measure 2
0000
0000
0000
0000
,  // measure 3
0000
0000
0000
0000
,  // measure 4
1000
1000
0100
0000
,  // measure 5
0001
0001
0100
0000
,  // measure 6
1000
1000
0010
0000
,  // measure 7
0001
0001
0010
0000
,  // measure 8
0010
0010
0100
0000
,  // measure 9
1000
1000
0001
0000
,  // measure 10
0100
0100
0010
0000
,  // measure 11
1000
1000
0001
0000
,  // measure 12
0001
0000
1000
0000
,  // measure 13
0010
0010
0010
0010
,  // measure 14
0100
0000
1000
0000
,  // measure 15
0010
0010
0010
0010
,  // measure 16
0010
0000
0100
0000
,  // measure 17
1000
0000
0001
0000
,  // measure 18
0100
0000
0010
0000
,  // measure 19
1000
0000
0001
0000
,  // measure 20
1000
0100
1000
0100
,  // measure 21
0010
0100
0010
0100
,  // measure 22
0110
0000
0000
0000
,  // measure 23
1001
0000
0000
0000
,  // measure 24
0001
0100
0001
0100
,  // measure 25
0010
0100
0010
0100
,  // measure 26
0110
0000
0000
0000
,  // measure 27
1001
0000
0000
0000
,  // measure 28
1000
0001
1000
0001
,  // measure 29
0010
0100
0010
0100
,  // measure 30
0110
0000
0000
0000
,  // measure 31
1001
0000
0000
0000
,  // measure 32
1000
0010
1000
0010
,  // measure 33
0100
0001
0100
0001
,  // measure 34
1001
0000
0000
0000
,  // measure 35
0110
0000
0000
0000
,  // measure 36
0010
0010
0010
0010
,  // measure 37
0100
0100
0100
0100
,  // measure 38
1000
1000
1000
1000
,  // measure 39
0002
0000
2003
0000
,  // measure 40
3001
0001
0001
0001
,  // measure 41
0100
0100
0100
0100
,  // measure 42
0010
0010
0010
0010
,  // measure 43
2000
0000
3002
0000
,  // measure 44
1003
1000
0100
0000
,  // measure 45
0001
0001
0010
0000
,  // measure 46
1000
1000
0100
0000
,  // measure 47
0001
0001
0010
0000
,  // measure 48
1000
1000
0010
0000
,  // measure 49
0001
0001
0100
0000
,  // measure 50
1000
1000
0010
0000
,  // measure 51
0001
0001
0100
0000
,  // measure 52
2002
0000
0000
0000
,  // measure 53
0000
0000
0000
3003
;

//---------------dance-single - ----------------
#NOTEDATA:;
#CHARTNAME:;
#STEPSTYPE:dance-single;
#DESCRIPTION:;
#CHARTSTYLE:;
#DIFFICULTY:Medium;
#METER:7;
#RADARVALUES:0.295870,0.325940,0.186585,0.186585,0.000000,182.000000,20.000000,20.000000,0.000000,0.000000,0.000000,0.000000,0.000000,0.295870,0.325940,0.186585,0.186585,0.000000,182.000000,20.000000,20.000000,0.000000,0.000000,0.000000,0.000000,0.000000;
#CREDIT:;
#NOTES:
// measure 0
0000
0000
0000
0000
,  // measure 1
0000
0000
0000
0000
,  // measure 2
0000
0000
0000
0000
,  // measure 3
0000
0000
0000
0000
,  // measure 4
1000
0100
0001
0010
,  // measure 5
1000
0100
0001
0100
,  // measure 6
1000
0010
0001
0100
,  // measure 7
1000
0010
0001
0010
,  // measure 8
1000
0100
0010
1000
,  // measure 9
0100
0001
0010
0100
,  // measure 10
0001
0010
1000
0100
,  // measure 11
0001
0010
0100
0001
,  // measure 12
0010
0001
0010
0000
0001
0000
0010
0000
,  // measure 13
0001
0010
0001
0000
0010
0000
0001
0000
,  // measure 14
1000
0100
1000
0000
0100
0000
1000
0000
,  // measure 15
0100
1000
0100
0000
1000
0000
0100
0000
,  // measure 16
1001
0100
0010
0100
,  // measure 17
1001
0010
0100
0010
,  // measure 18
0001
0010
0100
1000
,  // measure 19
2002
0000
0000
3003
,  // measure 20
2000
3020
0230
0302
,  // measure 21
0103
0000
0001
0000
0100
0001
0100
0000
,  // measure 22
0101
0000
0011
0000
,  // measure 23
1010
0000
1100
0000
,  // measure 24
0002
0203
2300
3200
,  // measure 25
1300
0000
0001
0000
0100
0010
0100
0000
,  // measure 26
0110
0000
1010
0000
,  // measure 27
0101
0000
1001
0000
,  // measure 28
2000
3200
0320
0032
,  // measure 29
0013
0000
0100
0000
1000
0001
0010
0000
,  // measure 30
0011
0000
1010
0000
,  // measure 31
0101
0000
1100
0000
,  // measure 32
2000
3002
0203
0320
,  // measure 33
0130
0000
0010
0000
0100
0001
0100
0000
,  // measure 34
0101
0000
1100
0000
,  // measure 35
0011
0000
1010
0000
,  // measure 36
1000
0100
0001
0010
,  // measure 37
1000
0100
0001
0100
,  // measure 38
1000
0010
0001
0010
,  // measure 39
1000
0100
0001
0010
,  // measure 40
1000
0100
0001
0010
,  // measure 41
0100
0010
0001
0100
,  // measure 42
0010
1000
0100
0010
,  // measure 43
0100
1000
0001
0100
,  // measure 44
0010
0100
0001
0010
,  // measure 45
0100
0001
0010
0100
,  // measure 46
0001
0010
0100
1000
,  // measure 47
0010
0100
1000
0010
,  // measure 48
0100
0001
1000
0100
,  // measure 49
0010
0010
0100
0100
,  // measure 50
0010
0001
1000
0100
,  // measure 51
1000
0010
0100
0001
,  // measure 52
0202
0000
0000
0000
,  // measure 53
0000
0000
0000
0303
;

//---------------dance-single - ----------------
#NOTEDATA:;
#CHARTNAME:;
#STEPSTYPE:dance-single;
#DESCRIPTION:;
#CHARTSTYLE:;
#DIFFICULTY:Hard;
#METER:10;
#RADARVALUES:0.467794,0.426229,0.093292,0.391828,0.000000,299.000000,10.000000,42.000000,0.000000,0.000000,0.000000,0.000000,0.000000,0.467794,0.426229,0.093292,0.391828,0.000000,299.000000,10.000000,42.000000,0.000000,0.000000,0.000000,0.000000,0.000000;
#CREDIT:;
#NOTES:
// measure 0
0000
0000
0000
0000
,  // measure 1
0000
0000
0000
0000
,  // measure 2
0000
0000
0000
0000
,  // measure 3
0000
0000
0000
0000
,  // measure 4
1000
0001
0100
0000
0010
0100
0001
0000
,  // measure 5
1000
0001
0100
0000
0110
0000
1001
0000
,  // measure 6
1000
0100
0010
0000
0100
1000
0001
0000
,  // measure 7
0010
0100
1000
0000
0010
0100
0101
0000
,  // measure 8
1000
0001
0100
0000
0001
0010
0100
0000
,  // measure 9
1000
0001
0010
0000
0001
0010
0110
0000
,  // measure 10
0100
1000
0001
0000
0100
0010
1000
0000
,  // measure 11
0001
0100
0010
0100
0001
1000
0010
0100
,  // measure 12
0010
1000
0100
0010
0200
0000
0301
0100
,  // measure 13
0010
0001
1000
0001
2000
0000
3010
0100
,  // measure 14
0010
0100
0001
1000
2000
0000
3001
0100
,  // measure 15
0010
0100
0001
0010
0002
0000
0013
0100
,  // measure 16
2000
0000
0001
0000
0010
0000
3001
0001
,  // measure 17
0002
0000
0100
0000
1000
0000
0013
0010
,  // measure 18
0010
0100
0010
0000
0100
0010
0100
0000
,  // measure 19
0220
0000
0000
0330
,  // measure 20
0021
0000
0032
0000
0023
0000
0130
1000
,  // measure 21
0002
0000
2003
0000
3002
0000
0103
0010
,  // measure 22
0100
0001
0100
0000
0001
0100
0001
0000
,  // measure 23
1000
0100
1000
0000
0100
1000
0100
0000
,  // measure 24
2100
0000
3002
0000
0023
0000
0031
1000
,  // measure 25
0200
0000
2300
0000
3002
0000
0103
0010
,  // measure 26
0100
0010
0100
0000
0010
0100
0010
0000
,  // measure 27
1000
0001
1000
0000
0001
1000
0001
0000
,  // measure 28
2001
0000
3002
0000
0023
0000
0031
0010
,  // measure 29
0200
0000
2300
0000
3200
0000
1300
0001
,  // measure 30
0100
0010
0100
0000
0010
0100
0010
0000
,  // measure 31
1000
0001
0010
0000
0001
1000
0100
0000
,  // measure 32
2100
0000
3002
0000
0023
0000
0031
0010
,  // measure 33
0002
0000
0203
0000
0320
0000
1030
0010
,  // measure 34
0100
0001
0100
0000
0001
0100
0001
0000
,  // measure 35
0100
0010
0100
0000
0010
0100
0010
0000
,  // measure 36
1000
0100
1000
0100
1000
0100
1000
0100
,  // measure 37
0001
0100
0001
0100
0001
0100
0001
0100
,  // measure 38
1000
0100
0001
0100
1000
0100
0001
0100
,  // measure 39
1000
0100
1000
0100
0001
0100
0001
0100
,  // measure 40
1000
0001
1000
0001
0200
0000
0310
0000
,  // measure 41
1000
0001
1000
0001
0020
0000
0130
0000
,  // measure 42
0100
0010
0001
0100
0002
0000
0103
0000
,  // measure 43
0100
0010
1000
0100
2000
0000
3100
0000
,  // measure 44
1000
0001
1000
0001
0100
0001
0100
0001
,  // measure 45
1000
0001
1000
0001
0100
0001
0100
0001
,  // measure 46
1000
0001
1000
0001
1000
0010
1000
0010
,  // measure 47
1000
0001
1000
0001
1000
0010
1000
0010
,  // measure 48
1000
0001
1000
0100
0020
0100
0130
0000
,  // measure 49
0100
0010
0001
0010
0200
0010
0310
0000
,  // measure 50
0001
0010
0100
1000
0002
1000
1003
0000
,  // measure 51
1000
0100
0010
0001
2000
0001
3001
0000
,  // measure 52
2002
0000
0000
0000
,  // measure 53
0000
0000
0000
3003
;
