#TITLE:L'avide ~ル・アビデ~;
#SUBTITLE:;
#ARTIST:Zektbach;
#TITLETRANSLIT:;
#SUBTITLETRANSLIT:;
#ARTISTTRANSLIT:;
#GENRE:;
#CREDIT:Ama-tan;
#MENUCOLOR:;
#METERTYPE:DDR X;
#BANNER:L'avide.png;
#BACKGROUND:L'avide-bg.png;
#LYRICSPATH:;
#CDTITLE:;
#MUSIC:L'avide.ogg;
#OFFSET:-1.241;
#SAMPLESTART:36.547;
#SAMPLELENGTH:12.000;
#SELECTABLE:YES;
#LISTSORT:;
#BPMS:0.000=170.000,64.000=85.000,72.000=170.000,296.000=85.000;
#STOPS:;
#BGCHANGES:;
#ATTACKS:;

//---------------dance-single - Ama-tan----------------
#NOTES:
     dance-single:
     Ama-tan:
     Challenge:
     17:
     0.843,0.855,0.214,0.040,0.536:
0000
0000
0000
0000
,
0000
0000
0000
0000
,
0000
0000
0000
0000
,
0000
0000
0000
0000
,
1000
0000
0001
0000
1000
0000
0001
0010
0100
1000
0010
0100
0010
1000
0001
0010
,
0100
0000
0010
0000
0100
0000
1000
0100
0010
0001
0100
0010
0100
0001
0010
0100
,
1000
0000
0001
0000
1000
0000
0001
0100
0010
1000
0100
0010
0100
1000
0001
0100
,
0010
0000
0100
0000
0010
0000
1000
0010
0100
0001
0010
0100
0010
0001
0100
0010
,
1000
0100
1100
1000
0100
0010
0011
0001
,
MMMM
0000
1000
0000
1010
0000
0001
0010
0100
1000
0001
0000
1001
0000
0001
0000
,
MMMM
0000
1000
0000
0010
0000
0100
0000
MMMM
0000
0010
0000
1000
0000
0001
0010
,
0001
0000
0010
0000
0100
0000
1000
0000
0001
1000
0001
0000
1000
0000
0001
0100
,
0001
0010
0011
0001
0100
0010
1010
1000
,
MMMM
0000
0001
0000
0011
0000
1000
0010
0100
0001
1000
0000
1001
0000
1000
0000
,
MMMM
0000
0001
0000
0010
0000
0100
0000
MMMM
0000
1000
0000
0001
0000
0010
0100
,
0010
0000
0000
0001
0000
0000
0100
0000
0000
0010
0000
0000
1000
0001
1000
0001
0000
0000
1000
0000
0000
0010
0000
0000
,
1010
0000
0011
0000
0101
0000
0001
0100
1000
0100
0001
1000
0100
0000
0000
0000
,
0101
0000
1100
0000
1010
0000
1000
0100
0001
0100
0010
0001
1000
0000
0000
0000
,
0001
1000
0100
0001
0100
0010
0001
1000
,
0010
0100
0010
0001
0010
0100
0001
0010
,
0100
1000
1010
0000
0001
0010
0011
0000
,
1000
0000
1001
0000
0000
0000
0110
0000
0000
0000
1000
0010
1000
0000
0001
0100
,
0001
0000
0010
0000
0001
0000
1000
0010
1000
0000
0100
0000
1000
0000
0001
0100
,
0010
0000
0100
0000
0001
0000
0010
0100
0010
0001
0100
0000
0010
0000
1000
0100
,
1000
0100
0010
1000
0010
0001
0100
0001
,
0100
0000
1000
0000
0100
0000
0001
0000
0010
0000
0100
0000
1000
0010
0100
0010
,
1000
0000
0100
0000
0010
0000
0001
0010
0001
0010
0001
0000
0100
0000
0010
0000
,
1000
0000
0001
0000
0100
0000
0010
0100
0010
0100
0010
0000
1000
0000
0001
0000
,
1000
0000
0100
0010
0100
0000
1000
0000
0001
0000
0100
0010
0100
0000
0001
0000
,
1000
0000
0010
0000
0000
0000
0101
0000
0000
0000
1000
0010
0100
0000
0010
0100
,
0001
0000
0100
0000
0010
0000
1000
0010
1000
0010
1000
0000
0100
0000
0010
0000
,
0001
0000
1000
0000
0100
0000
0010
0100
0010
0100
0010
0000
0001
0000
1000
0000
,
0001
0100
0000
1010
0000
0101
1000
0001
,
0110
0000
1000
0000
0000
0000
0110
0000
0000
0000
0001
0010
0100
1000
0001
0010
,
0100
0000
1000
0100
1000
0000
0100
0000
0010
0000
0001
0100
0001
0000
0010
0000
,
0001
0100
1000
0100
0010
1000
0001
0100
,
0010
0000
1000
0010
1000
0000
0010
0000
0100
0000
0001
0010
0001
0000
0010
0000
,
0100
1000
0001
1000
0100
0000
0010
0000
0001
0000
1000
0000
0010
0000
0100
0000
,
0001
0000
0010
0001
0010
0000
0100
0000
1000
0000
0001
0100
0010
0000
0100
0000
,
0010
1000
0100
0001
0100
1000
0001
0010
,
0001
0000
0100
0010
0100
0000
0001
0000
1000
0000
0001
0010
0001
0000
0010
0000
,
0100
1000
0010
1000
0001
0010
0100
1000
,
0001
0000
0100
0001
0100
0000
0010
0000
1000
0000
0100
1000
0100
0000
0010
0000
,
0001
0000
0001
0000
0100
0000
0100
0000
0010
0100
0010
0000
1000
0000
0100
0000
,
1000
0001
1000
0100
1000
0010
0100
0001
,
0010
0100
1000
0100
0010
0000
0001
0000
1000
0000
0010
0100
0010
0000
1000
0000
,
0001
0100
0001
0100
0001
0000
1000
0000
0010
0100
0010
0100
0010
0000
1000
0000
,
0001
0001
0100
0100
0010
1000
0010
0100
,
0001
0000
0000
0100
0000
0000
1000
0000
0000
0100
0000
0000
0001
0010
0000
0100
0000
0000
1000
0000
0000
0010
0000
0000
,
MMMM
1000
0100
0010
0001
0010
1000
0010
,
MMMM
0100
0001
0100
MMMM
1000
0010
0100
,
MMMM
0000
0000
0010
0000
0000
0100
0000
0000
0001
0000
0000
1000
0010
0100
0001
0000
0000
0010
0000
0000
0100
0000
0000
,
1000
0000
0000
0100
0000
0000
0001
0000
0000
0100
0000
0000
1000
0010
0000
0100
0000
0000
0001
0000
0000
0100
0000
0000
,
MMMM
0001
0100
0010
1000
0010
0001
0010
,
MMMM
0100
1000
0100
MMMM
0001
0010
0100
,
MMMM
0000
0000
0010
0000
0000
0100
0000
0000
1000
0000
0000
0001
0100
0010
1000
0000
0000
0001
0000
0000
0001
0000
0000
,
1000
0000
0010
1000
0010
0000
0100
0000
0001
0000
0010
0001
0010
0000
0100
0000
,
2000
0000
3002
0000
0013
0100
1000
0001
,
0100
0000
0010
1000
0010
0000
0100
0000
0001
0000
0010
0100
0010
0000
0001
0000
,
0100
0010
1000
0010
0100
0000
0001
0000
0010
0000
0100
0010
0100
0000
1000
0000
,
0001
0000
0010
0001
0010
0000
0100
0000
1000
0000
0010
1000
0010
0000
0100
0000
,
0002
0000
2003
0000
3010
0100
0001
1000
,
0100
0000
0010
0001
0010
0000
0100
0000
1000
0000
0010
0100
0010
0000
1000
0000
,
0100
0010
0001
0010
0100
0000
1000
0000
0010
1000
0100
0010
0100
1000
0010
1000
,
0001
0000
1000
0100
0001
0000
0100
0000
1000
0000
0001
0100
1000
0000
0100
0000
,
0001
0000
1000
0010
0001
0000
0010
0000
1000
0100
0001
0000
0100
0000
1000
0000
,
0001
0000
0100
0010
0100
0000
0001
0000
0010
0100
0010
0000
0001
0000
1000
0000
,
0001
0100
0010
0100
0001
0000
1000
0000
0100
0010
0001
0000
0100
0010
1000
0000
,
0001
0100
0001
0100
0001
0000
0010
0000
0100
1000
0100
1000
0100
0000
0010
0000
,
0001
0001
0100
0100
0010
1000
0001
0001
,
1000
0000
0100
0000
1100
0000
1000
0000
0100
0000
0010
0000
0011
0000
0010
0001
,
1000
0000
0010
0000
1010
0000
0001
0010
0100
1000
0001
0000
1001
0000
0001
0100
,
0001
0000
1000
0000
0010
0000
0100
0001
0100
0000
0010
0000
1000
0000
0001
0010
,
0001
0000
0000
0010
0000
0000
0100
0000
0000
1000
0000
0000
0001
0010
0100
1000
0000
0000
1000
0000
0000
0100
0000
0000
,
0001
0000
0100
0000
1000
0010
0001
0000
0010
0000
1000
0000
0001
0000
0010
0000
,
0100
0001
1000
0000
0010
0000
0100
0000
1000
0000
0010
0000
0001
0010
1000
0000
,
0001
0000
0100
0000
1000
0000
0100
0000
0010
0001
0010
0000
1000
0000
0010
0100
,
1000
0000
0100
0000
0001
0010
1000
0000
0010
0000
0001
0000
0100
0000
0010
0000
,
1000
0100
0001
0000
0100
0000
0010
0000
1000
0000
0010
0000
0001
1000
0010
0000
,
0001
0000
0010
0000
1000
0100
0001
0000
0001
0100
0020
0000
0000
0030
0000
0000
;

//---------------dance-single - Ama-tan----------------
#NOTES:
     dance-single:
     Ama-tan:
     Hard:
     15:
     0.708,0.698,0.206,0.008,0.187:
0000
0000
0000
0000
,
0000
0000
0000
0000
,
0000
0000
0000
0000
,
0000
0000
0000
0000
,
1000
0000
0100
0000
0010
0000
0001
0000
0100
0000
0010
0000
1000
0100
1000
0000
,
0001
0000
0010
0000
0100
0000
1000
0000
0010
0000
0100
0000
0001
0010
0001
0000
,
1000
0000
0010
0000
0100
0000
0001
0000
0010
0000
0100
0000
1000
0010
1000
0000
,
0001
0000
0100
0000
0010
0000
1000
0000
0100
0000
0010
0000
0001
0100
0001
0000
,
1000
0100
0001
0100
0010
0100
1000
0001
,
0000
0001
0100
1000
0100
0010
0100
0001
,
0000
1000
0010
0001
0000
1000
0100
0001
,
0000
1000
0001
1000
0010
1000
0100
1000
,
0001
0010
1000
0010
0100
0010
0001
1000
,
0000
1000
0010
0001
0010
0100
0010
1000
,
0000
0001
0100
1000
0000
0001
0010
1000
,
0000
1000
0100
0010
0001
0010
0100
1000
,
0001
0000
0001
0000
0001
0000
0001
0100
0010
0100
0001
0010
0100
0000
0000
0000
,
1000
0000
1000
0000
1000
0000
1000
0100
0010
0100
1000
0010
1000
0000
0000
0000
,
0001
0000
1000
0000
0001
0000
0010
0001
0010
0000
0001
0000
1001
0000
0000
0000
,
1000
0000
0001
0000
1000
0000
0010
1000
0010
0000
1000
0000
1001
0000
0000
0000
,
1010
0011
0110
1001
,
1000
0010
0000
0110
0000
0000
0000
0000
,
1000
0000
0001
0000
1000
0000
0100
1000
0100
0000
1000
0000
1001
0000
0000
0000
,
0001
0000
1000
0000
0001
0000
0100
0001
0100
0000
0001
0000
1001
0000
0000
0000
,
0001
0100
1000
0000
0100
0010
0100
0000
,
0001
0010
0000
1001
0000
0000
0000
0000
,
0001
0000
1000
0000
0010
0000
0100
0010
0100
0000
0001
0000
0101
0000
0000
0000
,
1000
0000
0001
0000
0010
0000
0100
0010
0100
0000
1000
0000
1100
0000
0000
0000
,
0011
1010
0110
1001
,
0001
0010
0000
0110
0000
0000
0000
0000
,
1000
0000
0001
0000
0010
0000
0100
0010
0100
0000
1000
0000
1100
0000
0000
0000
,
0001
0000
1000
0000
0010
0000
0100
0010
0100
0000
0001
0000
0101
0000
0000
0000
,
1000
0100
0001
0100
0010
0100
0010
0100
,
1000
0010
0000
1001
0000
0000
0000
0000
,
1000
0100
1000
0100
0010
0100
0010
0100
,
1000
0000
0001
1000
0001
0000
0100
0000
0010
0000
1000
0001
1000
0000
0100
0000
,
1000
0010
1000
0010
0100
0010
0100
0010
,
1000
0000
0001
1000
0001
0000
0100
0000
1000
0000
0100
0000
0001
0000
0010
0000
,
0001
0100
0001
0100
0010
0100
0010
0100
,
0001
0000
1000
0001
1000
0000
0100
0000
0010
0000
0001
1000
0001
0000
0100
0000
,
0001
0010
0001
0010
0100
0010
0100
0010
,
0001
0000
1000
0001
1000
0000
0100
0000
0001
0000
0100
0000
1000
0000
0010
0000
,
1000
0100
1000
0100
0001
0100
0001
0100
,
1000
0000
0010
0100
0010
0000
1000
0000
0001
0000
0010
0100
0010
0000
0001
0000
,
1000
0010
1000
0010
0001
0010
0001
0010
,
1000
0000
0100
0010
0100
0000
1000
0000
0001
0000
0100
0010
0100
0000
0001
0000
,
1000
0000
0100
0010
0001
0000
0010
0000
0100
0000
1000
0100
0010
0000
0100
0000
,
1000
0100
0001
0100
1000
0010
0001
0010
,
1000
0100
0001
0100
0010
0100
1000
0001
,
0000
0001
0100
1000
0100
0010
0100
0001
,
0000
1000
0100
0001
0000
1000
0100
0001
,
0000
1000
0001
1000
0010
1000
0100
1000
,
0001
0010
1000
0010
0100
0010
0001
1000
,
0000
1000
0010
0001
0010
0100
0010
1000
,
0000
0001
0100
1000
0000
0001
0100
1000
,
0000
1000
0100
0010
0001
0010
0100
1000
,
0001
0010
0001
0010
1000
0010
1000
0010
,
0001
0000
0100
0010
0100
0000
0001
0000
1000
0000
0100
0010
0100
0000
1000
0000
,
0001
0100
0001
0100
1000
0100
1000
0100
,
0001
0000
0010
0100
0010
0000
0001
0000
1000
0000
0010
0100
0010
0000
1000
0000
,
0001
0010
0001
0100
0001
1000
0001
0100
,
0001
0000
0100
0010
1000
0000
0001
0000
1000
0000
0100
0010
0001
0000
1000
0000
,
0001
0100
0001
0010
0001
1000
0001
0010
,
0001
0000
0010
0100
1000
0000
0010
0000
0100
0001
0100
0001
0100
0001
0010
0100
,
1000
0100
0010
0100
0001
0100
0010
0100
,
1000
0000
0010
0100
0010
0000
1000
0000
0001
0000
0010
0100
0010
0000
0001
0000
,
1000
0010
0100
0010
0001
0010
0100
0010
,
1000
0000
0100
0010
0100
0000
1000
0000
0001
0000
0100
0010
0100
0000
0001
0000
,
1000
0000
0010
0100
0001
0000
0010
0000
0100
0000
1000
0010
0100
0000
0010
0000
,
1000
0100
0001
0100
1000
0010
0001
0010
,
1000
0100
1100
1000
0100
0010
0001
0100
,
0110
0010
1000
0100
0010
0001
0100
0010
,
0110
0100
0010
1000
1010
0010
1000
0100
,
1100
1000
0100
0010
0110
0100
0010
0001
,
1000
0100
1000
0001
0100
1000
0001
0010
,
0100
0001
0010
0100
0001
0100
1000
0001
,
0100
1000
0001
0010
0100
0001
0010
0100
,
1000
0100
0001
1000
0010
0001
1000
0010
,
0100
1000
0100
0010
1000
0010
0001
1000
,
0100
0001
1000
0100
0001
0020
0000
0030
;

//---------------dance-single - TaroNuke----------------
#NOTES:
     dance-single:
     TaroNuke:
     Medium:
     12:
     0.523,0.537,0.222,0.333,0.000:
0000
0000
0000
0000
,
0000
0000
0000
0000
,
0000
0000
0000
0000
,
0000
0000
0000
0000
,
1000
0000
0001
0000
1000
0001
1000
0000
,
0010
0000
0100
0000
0010
0100
0010
0000
,
1000
0000
0001
0000
1000
0001
1000
0000
,
0010
0100
0010
0000
1000
0001
1000
0000
,
0001
0010
0100
0010
0001
0010
0100
1000
,
0000
0001
0100
0010
0100
0001
0100
0010
,
0000
1000
0100
1000
0000
0001
0100
0001
,
0000
1000
0010
0100
0001
0010
0100
1000
,
0001
0100
0010
0100
0001
0100
0010
1000
,
0000
0001
0010
0100
0010
0001
0010
0100
,
0000
1000
0100
0010
0000
0001
0100
0010
,
0000
1000
0100
0010
0001
0010
0100
1000
,
0001
0010
1000
0100
,
0001
0010
1000
0100
,
0001
0000
0101
0000
0000
1000
1100
0000
,
1000
0000
1010
0000
0000
0001
0011
0000
,
1000
0100
0001
0100
,
1000
0001
0000
1001
0000
0000
0000
0000
,
0001
0000
0011
0000
0000
1000
1010
0000
,
1000
0000
1100
0000
0000
0001
0101
0000
,
1000
0010
0000
0001
0000
0010
0000
0000
,
1000
0001
0000
1001
0000
0000
0000
0000
,
1000
0000
1010
0000
0000
0001
0011
0000
,
0001
0000
0101
0000
0000
1000
1100
0000
,
0001
0010
1000
0010
,
0001
1000
0000
1001
0000
0000
0000
0000
,
1000
0000
1100
0000
0000
0001
0101
0000
,
0001
0000
0011
0000
0000
1000
1010
0000
,
0001
0100
0000
1000
0000
0100
0000
0000
,
0001
1000
0000
1001
0000
0000
0000
0000
,
1000
0100
1000
0000
0001
0100
0001
0000
,
2000
3200
0310
0100
,
1000
0010
1000
0000
0001
0010
0001
0000
,
1000
0010
0100
0010
2000
0000
3002
0000
,
1003
0100
0010
0000
0001
0100
0010
0000
,
2000
3020
0130
0010
,
1000
0010
0100
0000
0001
0010
0100
0000
,
1000
0100
0010
0001
0010
0100
1000
0001
,
0100
0010
0100
0000
0010
0100
0010
0000
,
2000
3002
0013
0100
,
0010
0100
0010
0000
0100
0010
0100
0000
,
1000
0100
0010
0100
1000
0100
0010
0000
,
0001
0100
0001
0100
,
0020
2030
3200
0320
,
0031
0010
1000
0010
0001
0010
0100
1000
,
0000
0001
0100
1000
0100
0001
0100
0010
,
0000
1000
0100
1000
0000
0001
0100
0001
,
0000
1000
0010
0100
0001
0010
0100
1000
,
0001
0100
1000
0100
0001
0100
0010
1000
,
0000
0001
0010
1000
0010
0001
0010
0100
,
0000
1000
0100
0010
0000
0001
0100
0010
,
0000
1000
0100
0010
0001
0010
0100
1000
,
0002
2003
3020
0230
,
0301
0000
0010
0000
0100
0010
0001
0000
,
2000
3002
0203
0320
,
1030
0100
1000
0100
0010
0000
0001
0000
,
2000
3020
0230
0302
,
1003
0000
0100
0000
0010
0100
1000
0000
,
0002
0203
0320
2030
,
3001
0010
0100
1000
0100
0010
0001
1000
,
0200
0320
0230
0320
,
0031
0000
1000
0000
0010
0100
0010
0000
,
0200
0320
0230
0320
,
1030
0100
1000
0100
0020
0000
0032
0000
,
1003
0100
1000
0000
0001
0100
0001
0000
,
2000
3200
0320
0032
,
1003
0100
0010
0100
1000
0010
0100
0010
,
0000
1000
0010
0100
0010
1000
0100
0010
,
0000
0001
0010
0100
0000
1000
0010
0100
,
0000
0001
0010
0100
1000
0001
0100
0010
,
1000
0000
0000
1100
0000
0000
0100
0000
,
0000
0101
0000
0000
0001
0000
0000
0011
,
0000
0000
0010
0000
0000
1010
0000
0000
,
1000
0000
0000
1010
0000
0000
0010
0000
,
0000
0011
0000
0000
0001
0000
0000
0101
,
0000
0000
0100
0000
0000
0110
0000
0000
;

//---------------dance-single - Chewi----------------
#NOTES:
     dance-single:
     Chewi:
     Easy:
     10:
     0.529,0.537,0.421,0.524,0.000: // measure 1
0000
0000
0000
0000
,  // measure 2
0000
0000
0000
0000
,  // measure 3
0000
0000
0000
0000
,  // measure 4
0000
0000
0000
0000
,  // measure 5
1000
0000
0000
1000
0000
1000
0000
0000
,  // measure 6
0001
0000
0000
0001
0000
0001
0000
0000
,  // measure 7
0100
0000
0000
0100
0000
0100
0000
0000
,  // measure 8
0010
0000
0000
0010
0000
0010
0000
0000
,  // measure 9
1000
0100
1000
0000
0001
0100
0001
0100
,  // measure 10
0000
1000
0010
1000
0200
0000
0320
0000
,  // measure 11
0031
0100
0001
0100
0000
0110
0000
1010
,  // measure 12
0000
1000
0001
0000
1100
0000
0101
0000
,  // measure 13
0001
0010
0001
0000
1000
0010
1000
0010
,  // measure 14
0000
1000
0100
0010
0002
0000
0023
0000
,  // measure 15
0130
1000
0100
1000
0000
1010
0000
0101
,  // measure 16
0000
0001
1000
0000
0011
0000
1010
0010
,  // measure 17
2002
0000
3003
0000
1000
0001
1000
0000
,  // measure 18
2002
0000
3003
0000
0001
1000
0001
0000
,  // measure 19
2000
0000
3200
0000
0300
1000
0100
0000
,  // measure 20
0020
0000
0032
0000
0003
0010
0001
0000
,  // measure 21
0020
0000
0230
0000
0300
0010
0100
0000
,  // measure 22
0020
0032
0203
2300
,  // measure 23
3020
0000
0230
0000
0300
0010
1000
0000
,  // measure 24
0020
0000
2030
0000
3000
0001
1000
0000
,  // measure 25
0002
0000
0023
0000
0030
0100
0010
0000
,  // measure 26
0002
0023
0230
2300
,  // measure 27
3001
0100
0010
1000
,  // measure 28
0001
1000
0001
0000
1001
0000
0000
0000
,  // measure 29
0001
1000
0010
0100
,  // measure 30
0001
0010
0100
0000
1100
0000
0000
0000
,  // measure 31
1000
0100
0010
0001
,  // measure 32
1000
0100
1000
0000
1010
0000
0000
0000
,  // measure 33
1000
0100
0010
0001
,  // measure 34
1000
0100
1000
0000
1001
0000
0000
0000
,  // measure 35
1000
0000
1100
0000
1000
0100
0010
0000
,  // measure 36
0002
0023
0230
2300
,  // measure 37
3001
0000
0011
0000
0001
0100
0001
0000
,  // measure 38
0200
0320
2030
3002
,  // measure 39
1003
0000
1010
0000
0100
0001
0100
0000
,  // measure 40
0001
0010
0001
0010
0001
0000
1001
0000
,  // measure 41
1000
0100
1000
0100
1000
0000
1001
0000
,  // measure 42
0110
0110
1001
1001
,  // measure 43
0001
0000
0011
0000
0001
0010
0100
0000
,  // measure 44
2000
3200
0320
0032
,  // measure 45
1003
0000
1100
0000
1000
0010
1000
0000
,  // measure 46
0020
0230
0302
2003
,  // measure 47
3001
0000
0101
0000
0010
1000
0010
0000
,  // measure 48
1000
0100
1000
0100
1000
0000
1001
0000
,  // measure 49
0001
0010
0001
0000
1000
0010
1000
0010
,  // measure 50
0000
0001
0100
0001
0020
0000
0230
0000
,  // measure 51
1300
0010
1000
0010
0000
0110
0000
0101
,  // measure 52
0000
0001
1000
0000
0011
0000
1010
0000
,  // measure 53
1000
0100
1000
0000
0001
0100
0001
0100
,  // measure 54
0000
0001
0010
0100
2000
0000
3200
0000
,  // measure 55
0310
0001
0010
0001
0000
0101
0000
1010
,  // measure 56
0000
1000
0001
0000
1100
0000
0101
0000
,  // measure 57
0001
0000
0011
0000
0001
0010
0100
0000
,  // measure 58
2000
3200
0320
0032
,  // measure 59
1003
0000
1100
0000
1000
0010
1000
0000
,  // measure 60
0020
0230
0302
2003
,  // measure 61
3001
0000
0101
0000
0010
1000
0010
0000
,  // measure 62
1000
0100
1000
0100
1000
0000
1001
0000
,  // measure 63
0001
0010
0001
0010
0001
0000
1001
0000
,  // measure 64
0110
0110
1001
1001
,  // measure 65
1000
0000
1100
0000
1000
0100
0010
0000
,  // measure 66
0002
0023
0230
2300
,  // measure 67
3001
0000
0011
0000
0001
0100
0001
0000
,  // measure 68
0200
0320
2030
3002
,  // measure 69
1003
0000
1010
0000
0100
0001
0100
0000
,  // measure 70
0001
0010
0001
0010
0001
0000
1001
0000
,  // measure 71
1000
0100
1000
0000
0001
0100
0001
0100
,  // measure 72
0000
1000
0010
1000
0200
0000
0320
0000
,  // measure 73
0031
0100
0001
0100
0000
0110
0000
1010
,  // measure 74
0000
1000
0001
0000
1100
0000
0101
0000
,  // measure 75
1000
0000
0000
1000
0000
0000
1000
0000
,  // measure 76
0000
1000
0000
0000
0001
0000
0000
0001
,  // measure 77
0000
0000
0001
0000
0000
0001
0000
0000
,  // measure 78
0010
0000
0000
0010
0000
0000
0010
0000
,  // measure 79
0000
0010
0000
0000
0100
0000
0000
0100
,  // measure 80
0000
0000
0100
0000
0000
0110
0000
0000
;

//---------------dance-single - Chewi----------------
#NOTES:
     dance-single:
     Chewi:
     Beginner:
     4:
     0.192,0.253,0.103,0.016,0.000:
0000
0000
0000
0000
,
0000
0000
0000
0000
,
0000
0000
0000
0000
,
0000
0000
0000
0000
,
1000
0000
1000
0000
,
0001
0000
0001
0000
,
0100
0000
0100
0000
,
0010
0000
0010
0000
,
0110
0000
0010
0000
,
0010
0010
0010
0000
,
1001
0000
1000
0000
,
0001
0000
1000
0000
,
0110
0000
0010
0000
,
0010
0010
0010
0000
,
1000
0000
0001
0000
,
1000
0000
1001
0000
,
2000
0000
3000
1000
,
0002
0000
0003
0001
,
0100
0000
0100
0000
,
0010
0000
0010
0000
,
1000
0000
1000
0000
,
0001
0000
0001
0000
,
1000
0000
0100
0000
,
0010
0000
0001
0000
,
1000
0000
0010
0000
,
0100
0000
0001
0000
,
0100
0000
0010
0000
,
1000
0000
0001
0000
,
0010
0000
0100
0000
,
1000
0000
0100
0000
,
0010
0000
0010
0000
,
0001
0000
0001
0000
,
1000
0000
1000
0000
,
0001
0000
0001
0000
,
0100
0000
0100
0000
,
0110
0000
0010
0000
,
0010
0000
0010
0000
,
1000
0000
1000
0000
,
1001
0000
0001
0000
,
1000
0000
0001
0000
,
0001
0000
0010
0000
,
1001
0000
1000
0000
,
0001
0000
0100
0000
,
0010
0000
1000
0000
,
0100
0000
0001
0000
,
0010
0000
0001
0000
,
0100
0000
1000
0000
,
0010
0000
0100
0000
,
0110
0000
0010
0000
,
0010
0010
0010
0000
,
1001
0000
1000
0000
,
0001
0000
1000
0000
,
0110
0000
0010
0000
,
0010
0010
0010
0000
,
1000
0000
0001
0000
,
1000
0000
1001
0000
,
0100
0000
0100
0000
,
0010
0000
0010
0000
,
1000
0000
1000
0000
,
0001
0000
0001
0000
,
1000
0000
0100
0000
,
0010
0000
0001
0000
,
1000
0000
0010
0000
,
0100
0000
0001
0000
,
0100
0000
0010
0000
,
1000
0000
0001
0000
,
0010
0000
0100
0000
,
1000
0000
0100
0000
,
0010
0000
0010
0000
,
0001
0000
0001
0000
,
1001
0000
1000
0000
,
1000
1000
1000
0000
,
0110
0000
0100
0000
,
0010
0000
0100
0000
,
0010
0000
0000
0010
,
0000
0000
0001
0000
,
0000
0001
0000
0000
,
1000
0000
0000
0001
,
0000
0000
1000
0000
,
0000
0000
0001
0000
0000
0001
0000
0000
;
