#TITLE:恋するフォーチュンクッキー;
#SUBTITLE:;
#ARTIST:AKB48;
#TITLETRANSLIT:Koisuru Fortune Cookie;
#SUBTITLETRANSLIT:;
#ARTISTTRANSLIT:;
#GENRE:Pop;
#CREDIT:chewi;
#BANNER:Koisuru Fortune Cookie.png;
#BACKGROUND:Koisuru Fortune Cookie-bg.png;
#LYRICSPATH:;
#CDTITLE:cdtitle.png;
#MUSIC:Koisuru Fortune Cookie.ogg;
#OFFSET:-1.410000;
#SAMPLESTART:72.250999;
#SAMPLELENGTH:15.000000;
#SELECTABLE:YES;
#BPMS:0.000000=122.000000
;
#STOPS:
;
#BGCHANGES:-2.820=Koisuru Fortune Cookie.avi=1.000=0=0=1=====,
99999=-nosongbg-=1.000=0=0=0 // don't automatically add -songbackground-
;
#KEYSOUNDS:;
#ATTACKS:;

//---------------dance-single - ----------------
#NOTES:
     dance-single:
     :
     Easy:
     4:
     0.169025,0.241832,0.055961,0.127911,0.000000,148.000000,141.000000,7.000000,16.000000,0.000000,0.000000,0.169025,0.241832,0.055961,0.127911,0.000000,148.000000,141.000000,7.000000,16.000000,0.000000,0.000000:
0000
0000
0000
0000
,
0000
0000
0000
0000
,
0000
0000
0000
0000
,
0000
0000
0000
0000
,
2000
0000
0000
3000
,
0002
0000
0000
0003
,
2000
0000
0000
3000
,
0002
0000
0000
0003
,
0100
0000
0010
0000
,
0100
0000
0010
0000
,
0100
0000
0010
0000
,
0100
0000
0010
0000
,
2000
0000
3100
0000
,
0002
0000
0103
0000
,
0100
0000
0000
0000
,
1010
1010
1010
0000
,
0100
0000
0010
0000
,
0100
0000
0010
0000
,
0100
0000
0010
0000
,
0100
0000
0010
0000
,
2000
0000
3100
0000
,
0002
0000
0103
0000
,
0100
0000
0000
0000
,
1010
1010
1010
0000
,
1000
0000
1000
0000
,
1000
0001
1000
0000
,
0001
0000
0001
0000
,
0001
1000
0001
0000
,
1000
0000
0001
0000
,
1000
0001
0100
0100
,
0001
0000
1000
0000
,
0001
1000
0100
0100
,
0200
0000
0310
0000
,
0200
0000
0310
0000
,
2002
0000
0000
3003
,
0000
0000
0000
0000
,
1000
0000
0001
0000
,
1000
0000
0001
0000
,
1000
0000
0001
0000
,
1000
0000
0001
0000
,
1000
0010
0001
0100
,
1000
0010
0001
0100
,
1000
0010
0001
0100
,
1000
0010
0001
0100
,
1000
0000
0001
0000
,
1000
0000
0001
0000
,
1000
0000
0001
0000
,
1000
0000
0001
0000
,
1000
0010
0001
0100
,
1000
0010
0001
0100
,
1000
0010
0001
0100
,
1000
0010
1000
0010
,
1000
0000
0010
0000
1000
1000
1000
0000
,
0001
0010
0001
0010
,
0001
0000
0010
0000
0001
0001
0001
0000
,
0001
1000
0100
1000
,
0001
0100
0010
0100
,
0002
0000
1003
0000
,
2000
0000
3001
0000
,
0002
0000
1003
0000
,
2000
0000
3001
0000
;

//---------------dance-single - ----------------
#NOTES:
     dance-single:
     :
     Beginner:
     3:
     0.132479,0.218548,0.015989,0.095933,0.000000,116.000000,114.000000,2.000000,12.000000,0.000000,0.000000,0.132479,0.218548,0.015989,0.095933,0.000000,116.000000,114.000000,2.000000,12.000000,0.000000,0.000000:
// measure 0
0000
0000
0000
0000
,  // measure 1
0000
0000
0000
0000
,  // measure 2
0000
0000
0000
0000
,  // measure 3
0000
0000
0000
0000
,  // measure 4
2000
0000
0000
3000
,  // measure 5
1000
0000
0000
0000
,  // measure 6
0002
0000
0000
0003
,  // measure 7
0001
0000
0000
0000
,  // measure 8
0010
0000
0100
0000
,  // measure 9
0100
0000
0100
0000
,  // measure 10
0100
0000
0010
0000
,  // measure 11
0010
0000
0010
0000
,  // measure 12
2000
0000
0000
3000
,  // measure 13
0002
0000
0000
0003
,  // measure 14
1001
0000
0000
0000
,  // measure 15
1000
1000
1000
0000
,  // measure 16
0010
0000
0100
0000
,  // measure 17
0100
0000
0100
0000
,  // measure 18
0100
0000
0010
0000
,  // measure 19
0010
0000
0010
0000
,  // measure 20
0002
0000
0000
0003
,  // measure 21
2000
0000
0000
3000
,  // measure 22
1001
0000
0000
0000
,  // measure 23
0001
0001
0001
0000
,  // measure 24
0001
0000
1000
0000
,  // measure 25
0001
1000
0001
0000
,  // measure 26
1000
0000
0001
0000
,  // measure 27
1000
0001
1000
0000
,  // measure 28
0001
0000
1000
0000
,  // measure 29
1000
0001
1000
0000
,  // measure 30
0001
0000
1000
0000
,  // measure 31
0001
1000
0001
0000
,  // measure 32
0200
0000
0000
0300
,  // measure 33
0200
0000
0000
0300
,  // measure 34
0100
0000
0000
0000
,  // measure 35
0000
1000
0000
0000
,  // measure 36
0001
0000
1000
0000
,  // measure 37
0001
0000
1000
0000
,  // measure 38
0001
0000
1000
0000
,  // measure 39
0001
0000
1000
0000
,  // measure 40
0001
0000
0100
0000
,  // measure 41
1000
0000
0010
0000
,  // measure 42
0001
0000
0100
0000
,  // measure 43
1000
0000
0100
0000
,  // measure 44
0001
0000
1000
0000
,  // measure 45
0001
0000
1000
0000
,  // measure 46
0001
0000
1000
0000
,  // measure 47
0001
0000
1000
0000
,  // measure 48
0001
0000
0010
0000
,  // measure 49
1000
0000
0100
0000
,  // measure 50
0001
0000
0010
0000
,  // measure 51
0001
0001
0001
0001
,  // measure 52
0001
0001
0001
0001
,  // measure 53
1000
1000
1000
1000
,  // measure 54
1000
1000
1000
1000
,  // measure 55
0001
0001
0001
0001
,  // measure 56
1000
1000
1000
1000
,  // measure 57
0002
0000
0000
0003
,  // measure 58
2000
0000
0000
3000
,  // measure 59
0002
0000
0000
0003
,  // measure 60
2000
0000
0000
3000
;

//---------------dance-single - ----------------
#NOTES:
     dance-single:
     :
     Medium:
     7:
     0.256964,0.291397,0.127911,0.383733,0.000000,225.000000,209.000000,16.000000,48.000000,0.000000,0.000000,0.256964,0.291397,0.127911,0.383733,0.000000,225.000000,209.000000,16.000000,48.000000,0.000000,0.000000:
0000
0000
0000
0000
,
0000
0000
0000
0000
,
0000
0000
0000
0000
,
0000
0000
0000
0000
,
2000
0000
0000
0000
,
3002
0000
0000
0000
,
0103
0100
0000
0000
0100
0100
0000
0000
,
0100
0010
1000
0001
,
1000
0100
0010
0001
,
1000
0000
0100
0000
1000
1000
1000
0000
,
0001
1000
0010
0100
,
0001
0000
1000
0000
0100
0010
0010
0000
,
0002
0010
0100
0013
,
2000
0010
0100
3010
,
2002
0000
0000
3003
,
1010
0101
1010
0000
,
0001
0100
0010
0100
,
0001
0000
0010
0000
0001
0001
0001
0000
,
0010
0100
1000
0010
,
1000
0000
0001
0000
1000
0001
0001
0000
,
0002
1000
0010
1003
,
2000
0010
0001
3010
,
2002
0000
0000
3003
,
0101
1010
0101
0000
,
2000
3100
0002
0103
,
2000
3020
0230
0302
,
2003
3010
0002
0013
,
0002
0023
0230
2300
,
3002
1003
2000
3001
,
2000
0100
0010
3001
,
0002
1003
2000
3001
,
0002
0100
0010
1003
,
2002
0000
0000
3003
,
2002
0000
0000
3003
,
1000
0010
0001
0100
,
1000
0010
0000
0000
,
0010
0100
0010
0100
,
0001
0101
0101
0101
,
1000
0010
0100
0001
,
1000
0100
0010
0001
,
2000
0100
0010
3001
,
0002
0010
0100
1003
,
1000
0100
0001
0100
,
1000
0100
0001
0010
,
1000
0100
0001
0010
,
0001
1001
1001
1001
,
0001
0100
0010
0100
,
0020
0001
0100
0031
,
0002
0100
1000
0103
,
0001
0100
1000
0100
,
0001
0100
1000
0010
,
0001
0010
0001
0010
,
1000
0000
0010
0000
1000
0010
1000
0000
,
0010
0100
0010
0100
,
0001
0000
1000
0000
0001
1000
0001
0000
,
1000
0100
0010
0001
,
1000
0000
0100
0000
0010
0001
0010
0000
,
0002
0000
2003
0000
3002
0000
0000
2003
,
0000
3002
2003
0000
,
3002
0000
0023
0000
0032
0000
0000
0023
,
0000
0032
0023
0030
;

//---------------dance-single - ----------------
#NOTES:
     dance-single:
     :
     Hard:
     10:
     0.331198,0.411114,0.151894,0.143900,0.000000,290.000000,271.000000,19.000000,18.000000,0.000000,0.000000,0.331198,0.411114,0.151894,0.143900,0.000000,290.000000,271.000000,19.000000,18.000000,0.000000,0.000000:
0000
0000
0000
0000
,
0000
0000
0000
0000
,
0000
0000
0000
0000
,
0000
0000
0000
0000
,
2000
0000
0000
0000
,
3200
0000
0000
0000
,
0310
0010
0000
0000
0010
0010
0000
0000
,
0001
0001
0000
0000
0001
0001
0000
0000
,
0001
0000
1000
0000
0010
0100
0001
0000
,
0100
0000
0010
0000
1000
0100
0010
0001
,
0010
0000
0001
0000
0100
0001
0010
0000
,
0100
0000
1000
0000
0010
1000
0100
1000
,
2000
0010
0001
3100
,
0002
0010
1000
0103
,
0100
0100
0000
0000
0100
0100
0000
0010
,
0000
0010
1000
0001
1000
0000
0000
0000
,
1000
0000
0100
0000
1000
0001
0010
0000
,
0001
0000
0100
0000
0001
1000
0010
1000
,
0100
0000
0010
0000
0001
0010
0100
0000
,
1000
0000
0100
0000
0010
0100
0001
0010
,
0200
1000
0001
1300
,
2000
0010
0001
3010
,
0010
0010
0000
0000
0010
0010
0000
0010
,
0000
0100
0001
0100
0001
0000
0000
0000
,
0002
0013
0002
0103
,
0001
0100
0010
1000
1100
0000
1010
0000
,
2000
3100
2000
3010
,
1000
0010
0100
0001
0010
0001
0010
0000
,
0002
1003
2000
3001
,
1000
0001
0010
0100
1000
0001
1001
0000
,
0200
0310
0020
0130
,
0100
0010
1000
0010
0100
0001
0011
0000
,
2002
0000
0000
3003
,
0220
0000
0000
0330
,
1001
0110
1001
0110
,
1001
0000
0000
0000
,
1000
0100
0001
0010
,
1000
0010
1000
0000
0010
1000
0010
0000
,
1000
0010
0001
0100
,
1000
0100
1000
0000
0100
1000
0100
0000
,
1000
0100
0010
0001
1000
0000
1001
0000
,
0001
0010
0100
1000
0001
0000
1001
0000
,
0100
1000
0100
0000
1000
0001
1000
0000
,
0001
1000
0001
0000
0100
0001
0100
0010
,
0001
0010
1000
0100
,
0001
0100
0001
0000
0100
0001
0100
0000
,
0001
0100
1000
0010
,
0001
0010
0001
0000
0010
0001
0010
0000
,
0001
0010
0100
1000
0001
0000
1001
0000
,
1000
0100
0010
0001
1000
0000
1001
0000
,
0011
0011
1100
1100
,
1000
0100
1000
0000
0001
0100
0001
0000
,
1000
0010
0100
0001
0010
0010
0010
0000
,
0001
0010
0001
0000
1000
0100
1000
0000
,
0001
0010
0100
1000
0100
0100
0100
0000
,
1000
0001
0100
0000
0001
1000
0010
0000
,
0100
0010
1000
0010
0100
0100
0100
0000
,
0100
0000
0001
0000
0100
0000
0000
0001
,
0000
0000
1000
0000
0100
0000
0000
0010
,
0000
0000
0001
0000
0010
0000
0000
0001
,
1000
0010
0010
0000
;
