#TITLE:Kissin U;
#SUBTITLE:;
#ARTIST:Miranda Cosgrove;
#TITLETRANSLIT:;
#SUBTITLETRANSLIT:;
#ARTISTTRANSLIT:;
#CREDIT:Chewi☆;
#BANNER:Kissin U.png;
#BACKGROUND:Kissin U-bg.png;
#LYRICSPATH:;
#CDTITLE:;
#MUSIC:Kissin U.mp3;
#OFFSET:-1.144;
#SAMPLESTART:36.092;
#SAMPLELENGTH:15.000;
#SELECTABLE:YES;
#DISPLAYBPM:110.000;
#BPMS:0.000=110.000;
#STOPS:;
#BGCHANGES:;

//---------------dance-single - Chewi----------------
#NOTES:
     dance-single:
     Chewi:
     Hard:
     9:
     0.360,0.356,0.089,0.142,0.000: // measure 1
0000
0000
0000
0000
,  // measure 2
0000
0000
0000
0000
,  // measure 3
0000
0000
0000
0000
,  // measure 4
0000
0000
0000
0000
,  // measure 5
2000
0000
3001
0000
1000
0001
0010
0000
,  // measure 6
0002
0000
1003
0000
1000
0001
0010
0000
,  // measure 7
0002
0000
1003
0000
0001
1000
0100
0000
,  // measure 8
2000
0000
3001
0000
0001
1000
0100
0000
,  // measure 9
1000
0001
1000
0001
1000
1000
1000
0000
,  // measure 10
0010
0100
0010
0100
0010
0010
0010
0000
,  // measure 11
0100
0001
0010
0100
0010
0010
0010
0000
,  // measure 12
0001
0010
0100
1000
0010
0010
0010
0000
,  // measure 13
0100
0001
0100
1000
0100
0100
0100
0000
,  // measure 14
1000
0010
0001
0010
1000
1000
1000
0000
,  // measure 15
0001
1000
0010
0100
0001
0001
0001
0000
,  // measure 16
0001
0010
0100
1000
1000
0100
0010
0001
,  // measure 17
2000
0000
0010
0000
0100
0010
3100
0000
,  // measure 18
0001
0101
1000
1100
,  // measure 19
0002
0000
0100
0000
0010
0100
0013
0000
,  // measure 20
1000
1010
0001
0011
,  // measure 21
0001
0010
0001
0000
1000
0100
1000
0000
,  // measure 22
0001
0100
0001
0000
1000
0010
1000
0000
,  // measure 23
0020
0000
0130
0000
0001
0010
0100
0000
,  // measure 24
2000
0000
3100
0000
0010
0001
0100
1000
,  // measure 25
0010
0100
0010
0100
0010
0010
0010
0000
,  // measure 26
1000
1001
0001
1001
,  // measure 27
1000
0001
0100
0010
1000
0001
0010
0100
,  // measure 28
0010
0000
0011
0000
0001
0001
0001
0000
,  // measure 29
2000
0000
3010
0000
0010
0100
0001
0000
,  // measure 30
0002
0000
0013
0000
0010
0100
1000
0000
,  // measure 31
1000
0100
0001
0100
2000
0000
3010
0000
,  // measure 32
0001
0010
1000
0010
0002
0000
0103
0000
,  // measure 33
0100
0010
0100
0001
0100
0010
1000
0000
,  // measure 34
0100
0010
0100
1000
0100
0010
0100
0000
,  // measure 35
1000
0100
1000
0000
0001
0100
0001
0000
,  // measure 36
0100
0010
1000
0000
0001
0010
0100
0000
,  // measure 37
1000
0100
0010
0100
1000
0010
0100
0000
,  // measure 38
0001
0100
0010
0100
0001
0010
0100
0000
,  // measure 39
1000
0100
0001
0000
0001
0010
1000
0000
,  // measure 40
1000
0100
0010
0000
0001
0100
0010
1000
,  // measure 41
0002
0000
1000
0000
,  // measure 42
0010
0000
1000
0000
0100
0100
0103
0000
,  // measure 43
2000
0000
0001
0000
,  // measure 44
0100
0000
0000
0000
0010
0010
3010
0000
,  // measure 45
1010
0000
0101
0000
0100
0100
0010
0010
,  // measure 46
1000
0000
0001
0000
1000
0100
0010
0001
,  // measure 47
0010
0000
0100
0000
1000
0010
0100
0001
,  // measure 48
0100
0100
0010
0010
1000
1000
0001
0001
,  // measure 49
2002
0000
0000
0000
,  // measure 50
0000
0000
0000
0000
,  // measure 51
3003
0000
0000
0000
;

//---------------dance-single - Chewi----------------
#NOTES:
     dance-single:
     Chewi:
     Medium:
     6:
     0.290,0.312,0.196,0.267,0.000:
0000
0000
0000
0000
,
0000
0000
0000
0000
,
0000
0000
0000
0000
,
0000
0000
0000
0000
,
1000
0010
0200
0301
,
0001
1000
0200
0310
,
0001
0010
0200
1300
,
0001
1000
0020
0130
,
0002
1000
0010
1003
,
2000
0010
0100
3010
,
0020
0001
0100
1030
,
2000
0100
0001
3010
,
0010
0000
0100
0000
0010
0100
0010
0000
,
1000
0000
0001
0000
1000
0001
1000
0000
,
0001
0010
0100
1100
,
1000
0010
0100
0101
,
0102
0100
1000
0103
,
1000
0000
0010
0000
0100
0001
0100
0000
,
0201
0010
0001
0310
,
2010
0100
0001
3100
,
0002
0000
1003
0000
0010
0100
0010
0000
,
0200
0000
0310
0000
1000
0001
1000
0000
,
0002
0013
0100
1100
,
2000
3100
0010
0011
,
1002
0100
0010
1003
,
1100
0000
0010
0000
0001
0100
0001
0000
,
0102
1000
0010
1003
,
2100
0100
0001
3010
,
2000
0000
3001
0000
0010
0100
0100
0000
,
0020
0000
0130
0000
0010
1000
1000
0000
,
0001
1100
0100
0011
,
0001
1001
0010
0110
,
0102
0100
1000
1000
,
0103
0010
1000
0001
,
2100
0100
0010
0010
,
3001
0100
0010
1000
,
1002
0010
0100
0010
,
0013
0100
1000
0010
,
0100
0101
1000
1001
,
0001
1000
0001
0000
1000
0001
1000
0000
,
2002
0000
0000
0000
,
0000
0000
0000
0003
,
0020
0000
0000
0000
,
0000
0000
0000
3030
,
0200
0000
0301
0000
0001
0001
0001
0000
,
0002
0000
0013
0010
0010
0000
0000
0000
,
0100
0000
1000
0000
0100
1000
0010
0000
,
0100
0000
0001
0000
1000
0001
1000
0000
,
2002
0000
0000
0000
,
0000
0000
0000
0000
,
3003
0000
0000
0000
;

//---------------dance-single - Chewi----------------
#NOTES:
     dance-single:
     Chewi:
     Easy:
     4:
     0.163,0.220,0.027,0.160,0.000:
0000
0000
0000
0000
,
0000
0000
0000
0000
,
0000
0000
0000
0000
,
0000
0000
0000
0000
,
1000
1000
0100
0000
,
0001
0001
0100
0000
,
1000
0001
1000
0000
,
0001
1000
0001
0000
,
2000
0000
0000
3000
,
0020
0000
0000
0030
,
0200
0000
0000
0300
,
0002
0000
0000
0003
,
0001
0010
0100
0000
,
0001
0010
1000
0000
,
0100
0010
1000
0000
,
0100
0010
0002
2003
,
3002
0000
1000
0000
,
0010
0010
0100
0103
,
2000
0000
0001
0000
,
0100
0100
0010
3010
,
0010
0100
0001
0000
,
0010
0100
1000
0000
,
1000
0001
0100
0000
,
0001
1000
0010
0000
,
0200
0000
0010
0000
,
0001
0001
0301
0000
,
0002
0000
1000
0000
,
0010
0010
0013
0000
,
0001
0010
0100
0000
,
1000
0010
0100
0000
,
0001
0100
1000
0000
,
1000
0100
0001
0000
,
0002
0000
0000
0003
,
1000
0010
0100
0000
,
0002
0000
0000
0003
,
0001
0010
0100
0000
,
2000
0000
0000
3000
,
0100
0010
0100
0000
,
1000
0000
1001
0000
,
0001
0000
1001
0000
,
0220
0000
0000
0000
,
0000
0000
0000
0300
,
2000
0000
0000
0000
,
0000
0000
0000
3030
,
2000
0000
0100
0000
,
0010
0000
3001
0000
,
0002
0000
0100
0000
,
0010
0000
1003
0000
,
1000
1000
1000
0000
,
0001
0001
0001
0000
;

//---------------dance-single - Chewi----------------
#NOTES:
     dance-single:
     Chewi:
     Beginner:
     1:
     0.075,0.131,0.036,0.045,0.000:
0000
0000
0000
0000
,
0000
0000
0000
0000
,
0000
0000
0000
0000
,
0000
0000
0000
0000
,
1000
0000
0000
0000
,
0001
0000
0000
0000
,
1000
0000
0000
0000
,
0001
0000
0000
0000
,
2000
0000
0000
3000
,
1000
0000
0000
0000
,
0200
0000
0000
0300
,
0100
0000
0000
0000
,
0001
0000
0000
0000
,
0001
0000
0000
0000
,
0100
0000
0000
0000
,
0100
0000
0000
0000
,
0001
0000
1000
0000
,
0010
0000
0000
0000
,
1000
0000
0001
0000
,
0100
0000
0000
0000
,
0010
0000
0000
0000
,
0010
0000
0000
0000
,
1000
0000
0000
0000
,
0001
0000
0000
0000
,
0100
0000
0010
0000
,
0001
0000
0000
0000
,
0001
0000
1000
0000
,
0010
0000
0000
0000
,
0001
0000
0000
0000
,
1000
0000
0000
0000
,
0001
0000
0000
0000
,
1000
0000
0000
0000
,
0002
0000
0000
0003
,
0001
0000
0000
0000
,
2000
0000
0000
3000
,
1000
0000
0000
0000
,
0020
0000
0000
0030
,
0010
0000
0000
0000
,
1000
0000
0001
0000
,
1000
0000
0001
0000
,
0110
0000
0000
0000
,
0000
0000
0000
0000
,
1001
0000
0000
0000
,
0000
0000
0000
0000
,
1000
0000
0000
0000
,
0010
0000
0000
0000
,
0001
0000
0000
0000
,
0010
0000
0000
0000
,
1001
0000
0000
0000
,
1001
0000
0000
0000
;
