#TITLE:Kind Lady (interlude rough instrumental);
#SUBTITLE:;
#ARTIST:OKUYATOS;
#TITLETRANSLIT:;
#SUBTITLETRANSLIT:;
#ARTISTTRANSLIT:;
#CREDIT:Chewi☆;
#BANNER:Kind Lady (interlude rough instrumental).png;
#BACKGROUND:Kind Lady (interlude rough instrumental)-bg.png;
#LYRICSPATH:;
#CDTITLE:;
#MUSIC:Kind Lady (interlude rough instrumental).mp3;
#OFFSET:-0.099;
#SAMPLESTART:42.809;
#SAMPLELENGTH:15.000;
#SELECTABLE:YES;
#DISPLAYBPM:135.000;
#BPMS:0.000=135.000;
#STOPS:;
#BGCHANGES:;
#MENUCOLOR:;
#METERTYPE:DDR X;

//---------------dance-single - Chewi----------------
#NOTES:
     dance-single:
     Chewi:
     Challenge:
     9:
     0.529,0.498,0.203,0.107,0.027:
0000
0000
0000
0000
,
0000
0000
0000
0000
,
0000
0000
0000
0000
,
0000
0000
0000
0000
,
1000
0000
0000
0010
0000
0000
0100
0000
0001
0000
0000
0100
0000
0000
0010
0000
,
1000
0000
0000
0001
0000
0000
0010
0000
1100
0000
0000
0000
0101
0000
0000
0000
,
1000
0000
0000
0010
0000
0000
0100
0000
0001
0000
0000
0010
0000
0000
0100
0000
,
1000
0100
1000
0100
0001
0100
0001
0100
,
1010
0000
0010
0000
0001
0100
0001
0000
,
1000
0100
0001
0010
1000
0010
0001
0100
,
0101
0001
0100
0000
1000
0100
1000
0000
,
1000
0010
0001
0010
1000
0100
0001
0100
,
0010
0100
0001
1000
0100
0010
0001
1000
,
0010
1000
0100
1000
0010
0001
0100
0001
,
0010
0100
1000
0001
0100
0010
1000
0001
,
0011
1000
1100
0010
,
0001
0010
0100
1000
0010
0100
0001
0100
,
0010
1000
0001
0010
0100
1000
0010
0100
,
0001
0010
0100
1000
0010
0100
0001
0010
,
0100
1000
0100
1000
0100
0001
0100
0001
,
0100
1000
0010
0100
0010
1000
0100
0010
,
0001
0100
0001
0010
0001
0010
0100
1000
,
0010
0100
0001
1000
0100
0010
0001
1000
,
2000
3200
0302
0023
,
0031
0010
0100
1000
0001
0010
0100
1000
,
0001
1000
0010
0100
0001
1000
0010
0100
,
1000
0100
0010
0001
1000
0100
0010
0001
,
1000
0001
0100
0010
1000
0001
0010
0100
,
0011
0100
0010
0000
0010
0100
0010
0100
,
1010
0100
0010
0000
0100
0010
1000
0100
,
0001
0100
1000
0010
0001
0010
1000
0100
,
0010
0001
0010
0100
1000
0001
0100
0001
,
1010
0100
0001
0100
0001
0100
0010
1000
,
0001
0010
1000
0100
1000
0001
1000
0010
,
0100
0001
0010
0001
0100
0010
1000
0001
,
0001
0010
0100
1000
0100
1000
1000
0010
,
0200
0302
0023
0032
,
0013
0100
1000
0010
0100
0001
0100
0010
,
1000
0001
1001
0000
0010
0001
1001
0000
,
0100
0100
0010
0010
0100
0001
0011
0000
,
0001
0010
0100
1000
0001
0010
0100
1000
,
0001
0100
0010
1000
0001
0100
0010
1000
,
0001
1000
0100
0010
0001
1000
0010
0100
,
0001
0100
0001
0100
1100
0000
0000
0000
,
1000
0100
0010
0100
1000
0100
0010
0001
,
0100
0010
0100
0001
0010
0100
1000
0001
,
1010
0010
0100
0001
0100
0010
1000
0001
,
0011
0101
1100
1010
,
2002
0000
0000
0000
,
3003
0000
0000
0000
;

//---------------dance-double - Chewi----------------
#NOTES:
     dance-double:
     Chewi:
     Challenge:
     9:
     0.536,0.498,0.246,0.032,0.059:
00000000
00000000
00000000
00000000
,
00000000
00000000
00000000
00000000
,
00000000
00000000
00000000
00000000
,
00000000
00000000
00000000
00000000
,
10000000
00000000
00000000
00100000
00000000
00000000
01000000
00000000
00010000
00000000
00000000
00100000
00000000
00000000
01000000
00000000
,
00100000
00000000
00000000
00010000
00000000
00000000
01000000
00000000
01100000
00000000
00000000
00000000
10010000
00000000
00000000
00000000
,
10000000
00000000
00000000
01000000
00000000
00000000
00100000
00000000
00010000
00000000
00000000
01000000
00000000
00000000
00010000
00000000
,
00100000
00001000
00010000
00000100
00001000
00000001
00000100
00000010
,
00001000
00000100
00001000
00000010
00001000
00000100
00001000
00000010
,
00000100
00000001
00000010
00000001
00000100
00000001
00000010
00000001
,
00000100
00000010
00001000
00000100
00010000
00001000
00100000
00010000
,
01000000
00100000
01000000
00010000
00100000
01000000
10000000
00100000
,
01000000
00100000
10000000
00100000
01000000
00100000
10000000
00100000
,
10000000
01000000
00100000
00010000
10000000
01000000
00100000
00010000
,
01000000
00010000
00100000
00001000
00010000
00000100
00001000
00000001
,
00000100
00000010
00001000
00000001
00000010
00000100
00001000
00000001
,
00001001
00001000
00000010
00000100
00000001
00000100
00000010
00001000
,
00000001
00000010
00000100
00001000
00000010
00001000
00000100
00001000
,
00000100
00010000
00100000
10000000
01000000
00010000
00100000
01000000
,
10000000
00100000
01000000
00010000
01000000
00100000
10000000
00010000
,
00100000
01000000
10000000
01000000
00100000
00010000
01000000
00010000
,
00100000
00001000
00010000
00000100
00001000
00000001
00000100
00000010
,
00001000
00000001
00000010
00000100
00001000
00000010
00000100
00000001
,
00000012
00001000
00000100
00000013
,
00000011
00000100
00000010
00000000
00001000
00000100
00000010
00000000
,
00000100
00001000
00010000
01000000
10000000
00100000
00010000
00100000
,
10000000
01000000
00100000
00000000
00100000
10000000
01000000
00100000
,
01010000
00000000
00000000
00110000
00000000
00000000
01010000
00000000
00100000
00000000
01000000
00000000
00010000
00000000
00100000
00000000
,
01000000
01000000
00100000
00100000
00010000
01000000
00100000
10000000
,
00010000
00010000
00100000
00100000
00001000
00010000
00001000
00000010
,
00000001
00000100
00001000
00000010
00000100
00000010
00001000
00000001
,
00000011
00000000
00000000
00001100
00000000
00000000
00000101
00000000
00000010
00000000
00000100
00000000
00000001
00000000
00000010
00000000
,
00000100
00001000
00000010
00000000
00001000
00000000
00000100
00000000
00001000
00000000
00000010
00000000
00001000
00000000
00000100
00000000
,
00010000
00001000
00100000
00010000
01000000
00100000
10000000
00010000
,
00100000
01000000
10000000
00000000
00100000
00000000
01000000
00000000
00010000
00000000
00100000
00000000
01000000
00000000
10000000
00000000
,
00100000
01000000
00010000
00100000
11000000
00100000
01010000
00000000
,
00010000
00100000
00001000
00000000
00010000
00000000
00000100
00000000
00001000
00000000
00000001
00000000
00000100
00000000
00000010
00000000
,
00001000
00000001
00000010
00000100
00001000
00000010
00000100
00000001
,
00000010
00000001
00000100
00000000
00000010
00000000
00001000
00000000
00000100
00000000
00001000
00000000
00000010
00000000
00001000
00000000
,
00001100
00010100
00011000
00110000
,
00010000
01000000
00010000
00000000
00100000
00010000
01000000
00000000
,
01000000
00010000
00100000
00001000
00010000
00000100
00001000
00000010
,
00000100
00000001
00000010
00000000
00000100
00001000
00000010
00000000
,
00000100
00000100
00000010
00000010
00001000
00000100
00001100
00000000
,
00000100
00001000
00010000
00000000
00010000
01000000
00100000
00000000
,
00001000
00010000
00001000
00010000
00010000
01000000
10000000
00100000
,
00010000
00100000
10000000
00000000
10000000
00100000
00010000
00100000
,
00110000
00000000
11000000
00000000
01010000
00000000
10100000
10000000
,
20020000
00000000
00000000
00000000
,
30030000
00000000
00000000
00000000
;
