#TITLE:Kickstarts;
#SUBTITLE:;
#ARTIST:Example;
#TITLETRANSLIT:;
#SUBTITLETRANSLIT:;
#ARTISTTRANSLIT:;
#CREDIT:Chewi☆;
#BANNER:Kickstarts.png;
#BACKGROUND:Kickstarts-bg.png;
#LYRICSPATH:;
#CDTITLE:;
#MUSIC:Kickstarts.mp3;
#OFFSET:-0.404;
#SAMPLESTART:48.044;
#SAMPLELENGTH:15.000;
#SELECTABLE:YES;
#BPMS:0.000=126.000;
#STOPS:96.000=1.429
;
#BGCHANGES:;

//---------------dance-single - Chewi----------------
#NOTES:
     dance-single:
     Chewi:
     Beginner:
     2:
     0.131,0.151,0.021,0.083,0.000: // measure 1
0000
0000
0000
0000
,  // measure 2
0000
0000
0000
0000
,  // measure 3
0000
0000
0000
0000
,  // measure 4
0000
0000
0000
0000
,  // measure 5
2000
0000
0000
3000
,  // measure 6
1000
0000
0000
0000
,  // measure 7
0200
0000
0000
0300
,  // measure 8
0100
0000
0000
0000
,  // measure 9
0010
0000
0010
0000
,  // measure 10
0010
0000
0010
0000
,  // measure 11
0001
0000
0001
0000
,  // measure 12
0001
0000
0001
0000
,  // measure 13
1000
0000
1000
0000
,  // measure 14
1000
0000
1000
0000
,  // measure 15
0010
0000
0010
0000
,  // measure 16
0010
0000
0010
0000
,  // measure 17
0200
0000
0000
0300
,  // measure 18
0100
0100
0100
0000
,  // measure 19
0020
0000
0000
0030
,  // measure 20
0010
0010
0010
0000
,  // measure 21
1000
0000
0001
0000
,  // measure 22
0001
0000
1000
0000
,  // measure 23
0010
0000
0100
0000
,  // measure 24
0100
0000
0010
0000
,  // measure 25
0110
0010
0000
0000
,  // measure 26
0000
1000
0000
0000
,  // measure 27
0000
0100
0000
0000
,  // measure 28
0000
0001
0000
0000
,  // measure 29
0000
0010
0000
0000
,  // measure 30
0000
0001
0000
0000
,  // measure 31
0000
0100
0000
0000
,  // measure 32
0000
1000
0000
0000
,  // measure 33
0000
1000
0000
1000
,  // measure 34
0000
0001
0000
0001
,  // measure 35
0000
1000
0000
1000
,  // measure 36
0000
0001
0000
0001
,  // measure 37
0000
0100
0000
0100
,  // measure 38
0000
0010
0000
0010
,  // measure 39
0000
0100
0000
0100
,  // measure 40
0000
0010
0000
0010
,  // measure 41
0000
2000
0000
0000
,  // measure 42
3000
1000
1000
1000
,  // measure 43
0000
0002
0000
0000
,  // measure 44
0003
0001
0001
0001
,  // measure 45
0000
0200
0000
0000
,  // measure 46
0300
0100
0100
0100
,  // measure 47
0000
0020
0000
0000
,  // measure 48
0030
0010
0010
0010
,  // measure 49
0000
0110
0000
0000
;

//---------------dance-single - Chewi----------------
#NOTES:
     dance-single:
     Chewi:
     Easy:
     4:
     0.207,0.226,0.021,0.146,0.000: // measure 1
0000
0000
0000
0000
,  // measure 2
0000
0000
0000
0000
,  // measure 3
0000
0000
0000
0000
,  // measure 4
0000
0000
0000
0000
,  // measure 5
2000
0000
0000
3000
,  // measure 6
0002
0000
0000
0003
,  // measure 7
0200
0000
0000
0300
,  // measure 8
0020
0000
0000
0030
,  // measure 9
1000
0100
0010
0000
,  // measure 10
1000
1000
1000
0000
,  // measure 11
0100
0001
0010
0000
,  // measure 12
0100
0100
0100
0000
,  // measure 13
0001
1000
0001
0000
,  // measure 14
1000
0100
1100
0000
,  // measure 15
1000
0001
1000
0000
,  // measure 16
0001
0100
0101
0000
,  // measure 17
0100
0100
0100
0100
,  // measure 18
0200
0000
0000
0310
,  // measure 19
0010
0010
0010
0010
,  // measure 20
0020
0000
0000
1030
,  // measure 21
1000
1000
1000
1000
,  // measure 22
0001
0001
0001
0001
,  // measure 23
1000
0001
0100
0010
,  // measure 24
1000
0001
0010
0100
,  // measure 25
0010
0001
0001
0001
,  // measure 26
0001
2000
0000
0010
,  // measure 27
0000
3100
0100
0100
,  // measure 28
0100
0020
0000
0001
,  // measure 29
0000
0031
0001
0001
,  // measure 30
0001
2000
0000
0100
,  // measure 31
0000
3010
0010
0010
,  // measure 32
0010
0200
0000
0010
,  // measure 33
0000
0301
0100
0000
,  // measure 34
1000
0000
1000
0001
,  // measure 35
1000
0000
0001
0010
,  // measure 36
0100
1000
0100
0010
,  // measure 37
0001
0000
1000
0010
,  // measure 38
0100
0000
0001
0010
,  // measure 39
0100
0000
1000
0100
,  // measure 40
1000
0010
0010
0100
,  // measure 41
0100
0002
0000
1000
,  // measure 42
0000
0010
0000
0010
,  // measure 43
0000
2003
0000
0010
,  // measure 44
0000
0001
0000
0100
,  // measure 45
0000
3020
0000
0001
,  // measure 46
0000
0001
0000
0001
,  // measure 47
0000
2030
0000
0100
,  // measure 48
0000
0100
0000
0001
,  // measure 49
0000
3000
0000
0000
;

//---------------dance-single - Chewi----------------
#NOTES:
     dance-single:
     Chewi:
     Medium:
     6:
     0.343,0.375,0.135,0.208,0.000: // measure 1
0000
0000
0000
0000
,  // measure 2
0000
0000
0000
0000
,  // measure 3
0000
0000
0000
0000
,  // measure 4
0000
0000
0000
0000
,  // measure 5
2000
0100
0000
3010
,  // measure 6
0002
1000
0000
0103
,  // measure 7
2000
0010
0000
3100
,  // measure 8
0002
0100
0000
0013
,  // measure 9
0010
0000
0010
0000
0010
0000
0010
0100
,  // measure 10
1000
0000
1000
0000
1000
0000
1000
0100
,  // measure 11
0001
0000
0001
0000
0001
0000
0001
0100
,  // measure 12
0010
0000
0010
0000
0010
0000
0010
1000
,  // measure 13
0001
0000
0001
0000
0001
0000
0001
0010
,  // measure 14
0100
0000
0100
0000
0100
0000
0100
1000
,  // measure 15
0010
0000
0010
0000
0010
0000
0010
1000
,  // measure 16
0001
0001
1000
1000
,  // measure 17
1010
0000
0100
0000
0001
0100
1000
0000
,  // measure 18
0100
0010
0001
0100
,  // measure 19
0101
0000
0010
0000
1000
0100
0010
0000
,  // measure 20
0001
1000
0010
0100
,  // measure 21
0001
0001
0001
0000
1000
0000
1100
0000
,  // measure 22
1000
1000
1000
0000
0001
0000
0101
0000
,  // measure 23
0100
0000
0010
0000
1000
0001
1000
0000
,  // measure 24
0100
0000
0010
0000
0001
0010
0100
1000
,  // measure 25
0010
0010
0010
0010
,  // measure 26
1010
0100
0001
0010
,  // measure 27
1000
0100
0100
0100
,  // measure 28
1100
2000
3002
0203
,  // measure 29
0320
1030
1000
1000
,  // measure 30
1010
0100
0001
0010
,  // measure 31
0100
0001
0001
0001
,  // measure 32
0011
0020
0230
0302
,  // measure 33
2003
0000
3001
0001
0001
0000
1000
1000
,  // measure 34
1000
0010
0100
0001
,  // measure 35
1000
0100
0010
0100
,  // measure 36
1100
1000
0010
0100
,  // measure 37
0101
0000
0010
0000
0010
0000
0010
0010
,  // measure 38
0010
0000
0100
0000
0100
0000
0100
0100
,  // measure 39
0100
1000
0100
0010
,  // measure 40
0011
0001
0100
0010
,  // measure 41
1010
0000
1000
0000
1001
0000
0001
1000
,  // measure 42
0001
2000
3200
0302
,  // measure 43
0023
0000
0130
0000
0100
0000
0100
0010
,  // measure 44
0100
0020
0032
0203
,  // measure 45
2300
0000
3010
0000
0100
0000
0001
0100
,  // measure 46
0010
0000
1000
0000
0100
0000
0010
0100
,  // measure 47
1000
0000
0001
0000
0001
0000
0001
1000
,  // measure 48
0010
0000
0100
0000
0100
0000
0100
0010
,  // measure 49
1000
0001
0000
0000
0000
0000
0000
0000
;

//---------------dance-single - Chewi----------------
#NOTES:
     dance-single:
     Chewi:
     Hard:
     10:
     0.437,0.426,0.208,0.000,0.000: // measure 1
0000
0000
0000
0000
,  // measure 2
0000
0000
0000
0000
,  // measure 3
0000
0000
0000
0000
,  // measure 4
0000
0000
0000
0000
,  // measure 5
1000
0000
0001
0000
1000
0001
1000
0000
,  // measure 6
0001
0000
1000
0000
0001
1000
0001
0000
,  // measure 7
0100
0000
0010
0000
0100
0010
0100
0000
,  // measure 8
0010
0000
0100
0000
0010
0100
0010
0000
,  // measure 9
1000
0010
1000
0010
1000
0010
1000
0010
,  // measure 10
1000
0100
1000
0100
1000
0100
1000
0100
,  // measure 11
0010
0001
0010
0001
0010
0001
0010
0001
,  // measure 12
0010
0100
0010
0100
0010
0100
0010
0100
,  // measure 13
0010
0001
0100
0010
1000
0100
0010
0000
,  // measure 14
0100
1000
0010
0100
0001
0010
0100
0000
,  // measure 15
0010
0100
0010
0000
0001
1000
0001
0000
,  // measure 16
1000
0010
1000
0000
0001
0100
0001
0000
,  // measure 17
0010
0100
0010
1000
0001
0010
0100
1000
,  // measure 18
0010
1000
0100
0000
0010
0001
0100
0000
,  // measure 19
0010
0100
0001
0010
0100
1000
0010
0000
,  // measure 20
1000
0100
0010
0000
0001
0100
0010
0000
,  // measure 21
1000
0001
0100
0010
1000
0001
0010
0000
,  // measure 22
0100
0010
0001
0000
0100
0010
1000
0000
,  // measure 23
0001
0100
0010
0100
0001
0010
0100
0000
,  // measure 24
1000
0100
0010
0100
1000
0010
0100
0001
,  // measure 25
1000
0000
0000
0001
0000
0001
1000
0010
,  // measure 26
0100
0001
0000
0000
0100
0100
0000
1010
,  // measure 27
0000
0101
0000
1000
0000
0100
0010
0001
,  // measure 28
0010
0100
1000
0000
1010
0000
0001
0000
,  // measure 29
0101
0000
0100
0010
0000
1000
0010
0100
,  // measure 30
0001
0010
0000
0000
0010
0100
0000
1000
,  // measure 31
0000
1100
0000
1010
0000
0001
0010
0100
,  // measure 32
1000
0001
0100
0000
1010
0000
0100
0000
,  // measure 33
0011
0000
0001
0010
1100
0000
1000
0010
,  // measure 34
0100
0000
0001
0100
0001
0100
0010
1000
,  // measure 35
0010
1000
0001
0010
0011
0000
0100
1000
,  // measure 36
0100
0000
1000
0100
0001
0010
1000
0100
,  // measure 37
0010
0000
0100
1000
1100
0000
1000
0001
,  // measure 38
0100
0000
0010
0100
0101
0000
0100
0010
,  // measure 39
1000
0000
1000
0010
0001
0100
1000
0010
,  // measure 40
0100
0000
0010
1000
0100
0010
1000
0100
,  // measure 41
0010
0001
0010
0000
0011
0000
0100
0000
,  // measure 42
0101
0000
0100
0010
1000
0001
0010
0100
,  // measure 43
1000
0001
1000
0000
1100
0000
0001
0000
,  // measure 44
0101
0000
0100
0010
1000
0001
0010
0100
,  // measure 45
1000
0001
1000
0000
1100
0000
1000
0000
,  // measure 46
1001
0000
1000
0010
0100
0001
1000
0010
,  // measure 47
0100
0001
1000
0000
1010
0000
0001
0000
,  // measure 48
0101
1000
0100
0001
,  // measure 49
0010
0010
0000
0000
0000
0000
0000
0000
;
