#TITLE:Keep on movin';
#SUBTITLE:;
#ARTIST:NM;
#TITLETRANSLIT:;
#SUBTITLETRANSLIT:;
#ARTISTTRANSLIT:;
#GENRE:;
#CREDIT:Chewi☆;
#MENUCOLOR:;
#METERTYPE:DDR X;
#BANNER:Keep on movin'.png;
#BACKGROUND:Keep on movin'-bg.png;
#LYRICSPATH:;
#CDTITLE:;
#MUSIC:Keep on movin'.mp3;
#OFFSET:3.568;
#SAMPLESTART:29.122;
#SAMPLELENGTH:15.000;
#SELECTABLE:YES;
#LISTSORT:;
#BPMS:0.000=132.000;
#STOPS:;
#BGCHANGES:;
#ATTACKS:;

//---------------dance-single - Chewi----------------
#NOTES:
     dance-single:
     Chewi:
     Beginner:
     2:
     0.125,0.164,0.011,0.077,0.000: // measure 1
0000
0000
0000
0000
,  // measure 2
0000
0000
0000
0000
,  // measure 3
0000
0000
0000
0000
,  // measure 4
0000
0000
0000
0000
,  // measure 5
0000
0000
0000
0000
,  // measure 6
0000
0000
0000
0000
,  // measure 7
1000
0000
0000
0000
,  // measure 8
0001
0000
0000
0000
,  // measure 9
0100
0000
0000
0000
,  // measure 10
0010
0000
0100
0000
,  // measure 11
2000
0000
0000
3000
,  // measure 12
1000
0000
0000
0000
,  // measure 13
0002
0000
0000
0003
,  // measure 14
0001
0000
0000
0000
,  // measure 15
0010
0000
0010
0000
,  // measure 16
0100
0000
0100
0000
,  // measure 17
0001
0000
0001
0000
,  // measure 18
1000
0000
1000
0000
,  // measure 19
0001
0000
0100
0000
,  // measure 20
1000
0000
0010
0000
,  // measure 21
0100
0000
1000
0000
,  // measure 22
0010
0000
0000
0000
,  // measure 23
1000
0000
0100
0000
,  // measure 24
0001
0000
0010
0000
,  // measure 25
1000
0000
0100
0000
,  // measure 26
0020
0000
0000
0030
,  // measure 27
0010
0000
0100
0000
,  // measure 28
0010
0000
0100
0000
,  // measure 29
0001
0000
0010
0000
,  // measure 30
0001
0000
0100
0000
,  // measure 31
0100
0000
0010
0000
,  // measure 32
0100
0000
0010
0000
,  // measure 33
0100
0000
0001
0000
,  // measure 34
0010
0000
0001
0000
,  // measure 35
0002
0000
0000
0003
,  // measure 36
0001
0000
0000
0000
,  // measure 37
0020
0000
0000
0030
,  // measure 38
0010
0000
0000
0000
,  // measure 39
0002
0000
0000
0003
,  // measure 40
0001
0000
0000
0000
,  // measure 41
2000
0000
0000
3000
,  // measure 42
1000
0000
0000
0000
,  // measure 43
1000
0000
0001
0000
,  // measure 44
1000
0000
0010
0000
,  // measure 45
1000
0000
0001
0000
,  // measure 46
1000
0000
0001
0000
,  // measure 47
0001
0000
0010
0000
,  // measure 48
0100
0000
0010
0000
,  // measure 49
0100
0000
0100
0000
,  // measure 50
0010
0000
0010
0000
,  // measure 51
1001
0000
0000
0000
;

//---------------dance-single - Chewi----------------
#NOTES:
     dance-single:
     Chewi:
     Easy:
     4:
     0.233,0.274,0.011,0.175,0.000: // measure 1
0000
0000
0000
0000
,  // measure 2
0000
0000
0000
0000
,  // measure 3
0000
0000
0000
0000
,  // measure 4
0000
0000
0000
0000
,  // measure 5
0000
0000
0000
0000
,  // measure 6
0000
0000
0000
0000
,  // measure 7
2000
0000
0000
3000
,  // measure 8
0002
0000
0000
0003
,  // measure 9
0200
0000
0000
0300
,  // measure 10
0010
0001
0100
1000
,  // measure 11
2000
0100
0000
3100
,  // measure 12
0002
0010
0000
0013
,  // measure 13
2000
0001
0000
3001
,  // measure 14
0002
1000
0000
1003
,  // measure 15
0010
0010
0010
0010
,  // measure 16
0100
0100
0100
0100
,  // measure 17
0001
0001
0001
0001
,  // measure 18
1000
1000
1000
1000
,  // measure 19
0002
0000
0103
0000
,  // measure 20
1000
0000
0010
0000
,  // measure 21
0100
0010
1000
0001
,  // measure 22
0010
0000
0000
0000
,  // measure 23
2000
0000
3100
0000
,  // measure 24
0001
0000
0010
0000
,  // measure 25
1000
0010
0100
1000
,  // measure 26
0020
0000
0000
0030
,  // measure 27
0100
0100
0100
0100
,  // measure 28
0100
0100
0100
0100
,  // measure 29
0001
1000
0010
0100
,  // measure 30
0001
1000
0100
0010
,  // measure 31
0100
0100
0100
0100
,  // measure 32
0100
0100
0100
0100
,  // measure 33
0100
0010
0001
1000
,  // measure 34
0010
0100
0001
1000
,  // measure 35
0002
0000
0000
0003
,  // measure 36
2000
0000
0000
3000
,  // measure 37
0020
0000
0000
0030
,  // measure 38
0100
0001
0010
0100
,  // measure 39
0002
0000
0000
0003
,  // measure 40
0020
0000
0000
0030
,  // measure 41
2000
0000
0000
3000
,  // measure 42
0010
1000
0100
0010
,  // measure 43
1000
1000
0001
0001
,  // measure 44
1000
0100
0010
0001
,  // measure 45
1000
0100
0001
0100
,  // measure 46
1000
0010
0001
0010
,  // measure 47
0001
0001
0010
0010
,  // measure 48
0100
1000
0010
1000
,  // measure 49
0100
0100
0100
0100
,  // measure 50
0010
0010
0010
0010
,  // measure 51
1001
0000
0000
0000
;

//---------------dance-single - Chewi----------------
#NOTES:
     dance-single:
     Chewi:
     Medium:
     7:
     0.352,0.383,0.186,0.219,0.000: // measure 1
0000
0000
0000
0000
,  // measure 2
0000
0000
0000
0000
,  // measure 3
0000
0000
0000
0000
,  // measure 4
0000
0000
0000
0000
,  // measure 5
0000
0000
0000
0000
,  // measure 6
0000
0000
0000
0000
0000
0000
0000
1000
,  // measure 7
1000
0000
0000
0001
,  // measure 8
1001
0000
0000
0000
0000
0000
0000
0001
,  // measure 9
0001
0000
0000
1000
,  // measure 10
1001
0110
1001
0110
,  // measure 11
0010
0000
0100
0000
0010
0001
0100
0000
,  // measure 12
0010
0010
0100
0100
,  // measure 13
0010
0000
0100
0000
0010
1000
0100
0000
,  // measure 14
1000
1000
0001
0001
,  // measure 15
2000
3100
0002
0013
,  // measure 16
2000
3010
0002
0103
,  // measure 17
2000
3001
0002
1003
,  // measure 18
0010
0010
0010
0000
0100
0100
0100
0000
,  // measure 19
2010
0100
0010
3100
,  // measure 20
0001
0010
0001
0100
,  // measure 21
0010
0000
0010
0000
0100
0010
0100
0000
,  // measure 22
0100
0000
0100
0000
0010
0100
0010
0000
,  // measure 23
0012
0100
0010
0103
,  // measure 24
1000
0010
0100
0001
,  // measure 25
1000
0000
0001
0000
1000
0001
1000
0000
,  // measure 26
0001
0000
1000
0000
0001
1000
0001
0000
,  // measure 27
2000
3100
0002
0103
,  // measure 28
2000
3010
0002
0013
,  // measure 29
2000
3001
0002
1003
,  // measure 30
0020
0130
0200
0310
,  // measure 31
0010
1000
0100
0010
,  // measure 32
1000
1100
0001
0101
,  // measure 33
0001
0010
0100
0001
,  // measure 34
0010
0011
0100
0101
,  // measure 35
0102
0010
0100
0013
,  // measure 36
0010
0010
0010
0000
0100
0100
0100
0000
,  // measure 37
2100
0010
0100
3010
,  // measure 38
1000
1000
1000
0000
0001
0001
0001
0000
,  // measure 39
1000
0001
0100
0101
,  // measure 40
0001
1000
0100
1100
,  // measure 41
0010
0100
1000
0010
,  // measure 42
0001
0100
0010
0001
,  // measure 43
2100
0010
0100
3010
,  // measure 44
0001
1000
0001
0000
1000
0001
1000
0000
,  // measure 45
0010
0001
0100
1000
,  // measure 46
0010
0001
0100
1000
,  // measure 47
2001
0010
0001
3010
,  // measure 48
0001
0010
0001
0000
1000
0010
1000
0000
,  // measure 49
1000
0100
0001
0010
,  // measure 50
1000
0100
0001
0010
,  // measure 51
0010
0000
0000
0000
;

//---------------dance-single - Chewi----------------
#NOTES:
     dance-single:
     Chewi:
     Hard:
     10:
     0.516,0.575,0.372,0.099,0.000: // measure 1
0000
0000
0000
0000
,  // measure 2
0000
0000
0000
0000
,  // measure 3
0000
0000
0000
0000
,  // measure 4
0000
0000
0000
0000
,  // measure 5
0000
0000
0000
0000
,  // measure 6
0000
0000
0000
0000
0000
0000
0000
0100
,  // measure 7
0200
0000
0000
0000
0000
0000
0000
0310
,  // measure 8
0020
0000
0000
0000
0000
0000
0000
1030
,  // measure 9
2000
0000
0000
0000
0000
0000
0000
3001
,  // measure 10
0001
1001
0011
1001
,  // measure 11
1000
0010
0100
0000
0001
0100
0010
0000
,  // measure 12
1000
0100
0001
0100
1000
0100
0001
0100
,  // measure 13
1000
0010
0100
0000
0001
0100
0010
0000
,  // measure 14
1000
0010
0001
0010
1000
0010
0001
0010
,  // measure 15
1010
1000
1000
0000
0001
0010
0100
1000
,  // measure 16
1100
0100
0100
0000
1000
0100
0010
0001
,  // measure 17
1000
0001
0100
0000
0001
1000
0010
0000
,  // measure 18
0010
0010
0100
0100
0001
0001
1000
1000
,  // measure 19
0001
0011
1000
1010
0001
0101
1000
1100
,  // measure 20
0001
1000
0010
0100
0001
1000
0100
0010
,  // measure 21
0001
0000
1000
0010
0001
0100
1000
0100
,  // measure 22
0001
0010
1000
0100
0010
0001
1000
0100
,  // measure 23
0010
0011
0100
0101
0100
0110
0010
1010
,  // measure 24
0100
0010
0100
1000
0010
0100
0001
0100
,  // measure 25
0010
0010
1001
0000
0100
0100
1001
0000
,  // measure 26
1000
0100
0010
0001
0010
0100
1000
0010
,  // measure 27
0001
0010
1000
0000
0100
0000
0010
0000
,  // measure 28
0001
0100
0010
0000
0100
0000
0101
0000
,  // measure 29
0001
0010
0100
0000
1000
0100
0010
0000
,  // measure 30
0001
1000
0010
0100
0001
1000
0001
0000
,  // measure 31
0001
0010
0100
0000
1000
0100
0010
0000
,  // measure 32
0001
1100
1000
0101
,  // measure 33
1000
0010
0100
0000
0001
0100
0010
0000
,  // measure 34
1010
0011
0101
1100
,  // measure 35
1000
0100
0010
0100
1000
0100
0010
0100
,  // measure 36
1000
0001
1000
0001
0100
0010
0100
0010
,  // measure 37
0100
0001
0010
0001
0100
0001
0010
0001
,  // measure 38
0010
0100
0010
0100
0010
0001
0010
0001
,  // measure 39
0010
0001
0100
0001
0010
0100
1000
0010
,  // measure 40
2000
0000
3002
0000
0013
0100
1000
0010
,  // measure 41
0200
0302
0023
0230
,  // measure 42
1300
0100
0010
0000
0010
0100
1000
0000
,  // measure 43
0100
1100
0001
0101
0100
0110
0010
0110
,  // measure 44
1000
0010
0100
0001
1000
0100
0010
0001
,  // measure 45
1000
0100
0011
0000
0001
0100
1010
0000
,  // measure 46
0001
1000
0001
1000
0010
0100
0010
0100
,  // measure 47
1000
1100
0001
0101
1000
1001
0001
1001
,  // measure 48
1000
0010
0000
0001
0100
0010
1000
0001
,  // measure 49
0010
0100
1001
0000
0100
0010
1001
0000
,  // measure 50
1000
0010
0001
0010
1000
0100
0001
0100
,  // measure 51
1000
0000
0000
0000
;
