#TITLE:KEEP UP (Tony Arzadon Remix);
#SUBTITLE:;
#ARTIST:HYPER CRUSH;
#TITLETRANSLIT:;
#SUBTITLETRANSLIT:;
#ARTISTTRANSLIT:;
#GENRE:;
#CREDIT:Chewphoria~;
#MENUCOLOR:;
#METERTYPE:DDR;
#BANNER:KEEP UP (Tony Arzadon Remix).png;
#BACKGROUND:KEEP UP (Tony Arzadon Remix)-bg.png;
#LYRICSPATH:;
#CDTITLE:;
#MUSIC:KEEP UP (Tony Arzadon Remix).mp3;
#OFFSET:-7.932;
#SAMPLESTART:41.228;
#SAMPLELENGTH:15.000;
#SELECTABLE:YES;
#LISTSORT:;
#DISPLAYBPM:128.000;
#BPMS:0.000=127.970;
#STOPS:;
#BGCHANGES:;
#ATTACKS:;

//---------------dance-single - Chewphoria~----------------
#NOTES:
     dance-single:
     Chewphoria~:
     Beginner:
     2:
     0.146,0.156,0.053,0.032,0.000: // measure 1
2000
0000
0000
3000
,  // measure 2
1000
0000
0000
0000
,  // measure 3
0002
0000
0000
0003
,  // measure 4
0001
0000
0000
0000
,  // measure 5
0010
0010
0000
0000
,  // measure 6
1000
1000
0000
0000
,  // measure 7
0100
0100
0000
0000
,  // measure 8
0001
0001
0000
0000
,  // measure 9
0010
0010
0000
0000
,  // measure 10
0100
0100
0000
0000
,  // measure 11
0001
0001
0001
0001
,  // measure 12
0001
0000
0000
0000
,  // measure 13
1000
1000
0000
0000
,  // measure 14
0100
0100
0000
0000
,  // measure 15
0001
0001
0000
0000
,  // measure 16
0100
0100
0100
0100
,  // measure 17
0200
0000
0000
0000
,  // measure 18
0000
0000
0000
0300
,  // measure 19
0100
0000
0010
0000
,  // measure 20
1000
1000
1000
0000
,  // measure 21
1000
0000
0001
0000
,  // measure 22
0100
0100
0100
0000
,  // measure 23
0010
0000
0100
0000
,  // measure 24
0001
0001
0001
0000
,  // measure 25
0001
0000
1000
0000
,  // measure 26
1001
1001
0000
0000
,  // measure 27
0100
0000
1000
0000
,  // measure 28
0010
0010
0010
0000
,  // measure 29
1000
0000
0100
0000
,  // measure 30
0010
0010
0010
0000
,  // measure 31
0001
0000
0100
0000
,  // measure 32
0100
0100
0100
0000
,  // measure 33
0001
0000
0010
0000
,  // measure 34
0010
0010
0010
0000
,  // measure 35
1001
1001
0000
0000
,  // measure 36
1000
1000
0000
0000
,  // measure 37
0001
0001
0000
0000
,  // measure 38
0100
0100
0000
0000
,  // measure 39
0010
0010
0000
0000
,  // measure 40
1000
1000
0000
0000
,  // measure 41
0001
0001
0000
0000
,  // measure 42
1000
1000
0000
0000
,  // measure 43
1001
0000
0000
0000
;

//---------------dance-single - Chewphoria~----------------
#NOTES:
     dance-single:
     Chewphoria~:
     Easy:
     6:
     0.226,0.234,0.170,0.074,0.000: // measure 1
1000
1001
0000
0000
,  // measure 2
0000
0110
0000
0000
,  // measure 3
0001
1001
0000
0000
,  // measure 4
0110
0000
0000
0000
,  // measure 5
0010
1000
0100
1000
,  // measure 6
0010
1000
0100
1000
,  // measure 7
0001
1000
0002
0000
,  // measure 8
1003
0001
2000
0000
,  // measure 9
3010
0001
0100
0001
,  // measure 10
0010
0001
0100
0001
,  // measure 11
0100
0100
0100
0010
,  // measure 12
0010
0010
0110
0000
,  // measure 13
0010
1000
0002
0000
,  // measure 14
1003
0100
0010
0001
,  // measure 15
0010
0100
1000
0001
,  // measure 16
2000
0000
3010
0100
,  // measure 17
0110
0000
0100
0000
,  // measure 18
0100
0000
0000
0000
,  // measure 19
1000
0100
0011
0000
,  // measure 20
0001
1000
0001
1000
,  // measure 21
0001
0100
1010
0000
,  // measure 22
1000
0001
1000
0001
,  // measure 23
0010
0100
1100
0000
,  // measure 24
1000
0001
1000
0000
,  // measure 25
0001
0100
1000
0010
,  // measure 26
0002
0000
0000
0000
,  // measure 27
0103
0010
0100
0000
,  // measure 28
0010
0001
0100
1000
,  // measure 29
0010
0100
0010
0000
,  // measure 30
0100
0001
0010
1000
,  // measure 31
0100
0010
0100
0000
,  // measure 32
0001
0001
0001
0000
,  // measure 33
1000
1000
1000
0000
,  // measure 34
1000
0100
0001
0010
,  // measure 35
0100
0100
0000
0101
,  // measure 36
0000
0100
0000
1100
,  // measure 37
0000
1000
0000
0001
,  // measure 38
0000
0001
0010
0110
,  // measure 39
0110
0100
0000
1000
,  // measure 40
0000
0010
0000
0001
,  // measure 41
0000
0100
0000
1000
,  // measure 42
0010
0110
0110
0100
,  // measure 43
0202
0000
0000
0000
,  // measure 44
0000
0000
0000
0000
,  // measure 45
0303
0000
0000
0000
;

//---------------dance-single - Chewphoria~----------------
#NOTES:
     dance-single:
     Chewphoria~:
     Medium:
     8:
     0.340,0.327,0.351,0.085,0.000: // measure 1
1000
1001
0000
0000
,  // measure 2
0000
0110
0000
0110
0000
0000
0000
0000
,  // measure 3
0001
1001
0000
0000
,  // measure 4
0000
1100
1100
0000
,  // measure 5
1000
0000
1001
0000
0001
0010
1000
0000
,  // measure 6
0100
0000
0001
0000
0010
0010
0010
0000
,  // measure 7
0010
0000
0110
0000
0100
1000
0100
0000
,  // measure 8
1000
1001
0001
1001
,  // measure 9
0100
0010
1000
0000
0100
0010
0001
0000
,  // measure 10
1000
1010
0001
0011
,  // measure 11
1000
1000
1000
0000
0002
0000
0103
0000
,  // measure 12
0010
0010
0020
0000
1030
0000
1100
0000
,  // measure 13
1000
0100
0010
0000
0012
0000
0103
0000
,  // measure 14
0010
0000
0100
0001
0100
0000
0010
0000
,  // measure 15
1000
0000
0001
0000
1000
0100
1000
0000
,  // measure 16
0001
0000
0010
0000
0100
0000
1000
0100
,  // measure 17
1000
0000
0000
1000
0100
0000
0000
0010
,  // measure 18
0001
0000
0000
0000
0000
0000
0001
0010
,  // measure 19
0100
2000
0000
0000
,  // measure 20
3010
0100
0101
0010
,  // measure 21
1000
0001
2000
0000
0000
0000
3001
0000
,  // measure 22
0010
0100
0010
0000
0100
0000
1100
0000
,  // measure 23
1000
0001
1000
0000
0001
0000
0101
0000
,  // measure 24
0010
1010
0101
0000
,  // measure 25
1000
1100
0011
0000
,  // measure 26
0001
1000
0000
1000
0001
0000
0100
0010
,  // measure 27
2000
3001
0011
0000
,  // measure 28
0001
0011
1000
1100
,  // measure 29
0001
1000
0001
0000
1000
0000
1010
0000
,  // measure 30
0100
0001
0100
0000
0010
0000
1010
0000
,  // measure 31
1000
0001
1000
0000
0001
0000
0101
0000
,  // measure 32
0100
0010
1000
0000
1001
0000
1000
0000
,  // measure 33
1000
0100
0010
0000
0001
0000
0011
0000
,  // measure 34
1000
0001
0000
0001
1000
0000
1010
0000
,  // measure 35
0100
0100
0100
0000
0001
0000
0010
0000
,  // measure 36
1000
0100
0001
0010
,  // measure 37
0100
0100
0100
0000
1000
0000
0010
0000
,  // measure 38
0001
0000
0100
0000
1000
0000
0010
0100
,  // measure 39
0001
0000
1100
0000
1000
0001
1000
0000
,  // measure 40
0010
0110
0100
0001
,  // measure 41
0100
0010
1000
0001
,  // measure 42
1000
1000
1000
0000
0001
0001
0001
0001
,  // measure 43
2002
0000
0000
0000
,  // measure 44
0000
0000
0000
0000
,  // measure 45
3003
0000
0000
0000
;

//---------------dance-single - Chewphoria~----------------
#NOTES:
     dance-single:
     Chewphoria~:
     Hard:
     12:
     0.460,0.444,0.404,0.223,0.048: // measure 1
1001
0110
0000
0000
,  // measure 2
0000
1010
0000
0101
0000
0101
0000
0000
,  // measure 3
1001
0110
0000
0000
,  // measure 4
0000
0011
0000
1100
0000
0000
0000
0000
,  // measure 5
1001
0000
1001
0000
0010
0100
0001
0000
,  // measure 6
1000
0000
0000
0100
0000
0000
0100
0000
1000
0000
0010
0000
0100
0000
0000
0000
,  // measure 7
0001
0000
0100
0001
0000
0100
0001
0000
0010
0000
0000
0000
0020
0000
0000
0000
,  // measure 8
1030
0000
0001
1000
0000
0001
1000
0000
0100
0000
0010
0000
0001
0000
0000
0000
,  // measure 9
0020
0000
0031
0010
0100
1000
0010
0100
,  // measure 10
0002
0000
0103
0010
1000
0001
1100
0000
,  // measure 11
1000
1000
0100
0100
0002
0003
0010
0010
,  // measure 12
1000
0010
0002
0000
0203
0000
1300
0000
,  // measure 13
1001
0000
0000
0000
0001
0000
0100
0000
0010
0000
0000
0010
0000
0000
1000
0000
,  // measure 14
0000
0000
0100
0000
0010
0000
0001
0000
0010
0000
0100
1000
0000
0000
0001
0000
,  // measure 15
0200
0000
0310
1000
0002
0000
1003
0100
,  // measure 16
0010
0010
0001
0001
0100
1000
0010
0001
,  // measure 17
0200
0000
0000
0000
0000
0000
0310
1000
0020
0000
0000
0000
0000
0000
1030
0001
,  // measure 18
2000
0000
0000
0000
3000
0000
0001
0010
,  // measure 19
1100
0000
0101
0000
1000
0000
0010
1000
,  // measure 20
0100
0001
0010
0100
1000
0010
0100
0001
,  // measure 21
0102
0000
1003
0000
1000
0000
0010
1000
,  // measure 22
0100
0010
0001
0010
0100
1000
0010
1000
,  // measure 23
0102
0000
1003
0010
1000
0000
0001
0010
,  // measure 24
0100
1000
0010
0100
0001
0002
0003
0000
,  // measure 25
0001
0100
1000
0010
0001
0002
0003
0000
,  // measure 26
0101
0010
0000
1010
0100
0000
1000
0010
,  // measure 27
0101
0000
1001
0010
1010
0000
1000
0100
,  // measure 28
0010
0001
0100
0010
1000
0001
0100
0010
,  // measure 29
2010
0000
3001
0010
0100
0000
1100
0000
,  // measure 30
1000
0100
0010
0001
0100
0010
1000
0001
,  // measure 31
0102
0000
1003
0010
1010
0000
1000
0100
,  // measure 32
0010
0001
0100
1000
0010
0002
0003
0000
,  // measure 33
0001
0010
1000
0100
0001
0020
0030
0000
,  // measure 34
0011
0100
0000
1010
0100
0000
0001
0100
,  // measure 35
1010
0000
0001
0000
0100
0010
0100
0010
,  // measure 36
1100
0000
0010
0000
0100
0001
0100
0010
,  // measure 37
1001
0000
0100
0000
0010
0100
0010
1000
,  // measure 38
1001
0000
0100
0000
0010
0001
0010
0100
,  // measure 39
1100
0000
0010
0000
0100
0010
0100
0010
,  // measure 40
0101
0000
0100
0000
0010
1000
0001
0010
,  // measure 41
1100
0000
0001
0000
0100
0010
0100
0001
,  // measure 42
0101
1000
1010
0001
,  // measure 43
0220
0000
0000
0000
,  // measure 44
0000
0000
0000
0000
,  // measure 45
0330
0000
0000
0000
;
