#TITLE:Keep It Real (Disko Warp Techpara Remix);
#SUBTITLE:;
#ARTIST:Thomas Howard Lichtenstein;
#TITLETRANSLIT:;
#SUBTITLETRANSLIT:;
#ARTISTTRANSLIT:;
#CREDIT:Chewi☆;
#BANNER:Keep It Real (Disko Warp Techpara Remix).png;
#BACKGROUND:Keep It Real (Disko Warp Techpara Remix)-bg.png;
#LYRICSPATH:;
#CDTITLE:cdtitle.png;
#MUSIC:Keep It Real (Disko Warp Techpara Remix).mp3;
#OFFSET:-0.523;
#SAMPLESTART:39.975;
#SAMPLELENGTH:15.000;
#SELECTABLE:YES;
#DISPLAYBPM:146.000;
#BPMS:0.000=146.000;
#STOPS:;
#BGCHANGES:;

//---------------dance-single - Chewi----------------
#NOTES:
     dance-single:
     Chewi:
     Beginner:
     3:
     0.141,0.206,0.010,0.086,0.000: // measure 1
0000
0000
0000
0000
,  // measure 2
0000
0000
0000
0000
,  // measure 3
0000
0000
0000
0000
,  // measure 4
0000
0000
0000
0000
,  // measure 5
1000
0000
0000
0000
,  // measure 6
0001
0000
0000
0000
,  // measure 7
0001
0000
0000
0000
,  // measure 8
1001
0000
0000
0000
,  // measure 9
0001
0000
0100
0000
,  // measure 10
0010
0000
0001
0000
,  // measure 11
0100
0000
1000
0000
,  // measure 12
0010
0000
0100
0000
,  // measure 13
1000
0000
0100
0000
,  // measure 14
0001
0000
1000
0000
,  // measure 15
0001
0000
0100
0000
,  // measure 16
1000
0000
0001
0000
,  // measure 17
2000
0000
0000
0000
,  // measure 18
3000
0000
0000
0000
,  // measure 19
0020
0000
0000
0000
,  // measure 20
0030
0000
0000
0000
,  // measure 21
2000
0000
0000
0000
,  // measure 22
3000
0000
0000
0000
,  // measure 23
0002
0000
0000
0000
,  // measure 24
0003
0000
0000
0000
,  // measure 25
1000
0000
0100
0000
,  // measure 26
0001
0000
0001
0000
,  // measure 27
0001
0000
0100
0000
,  // measure 28
1000
0000
0010
0000
,  // measure 29
0001
0000
1000
0000
,  // measure 30
0010
0000
0001
0000
,  // measure 31
1000
0000
0010
0000
,  // measure 32
0001
0000
0001
0000
,  // measure 33
0002
0000
0000
0003
,  // measure 34
0001
0000
0000
0000
,  // measure 35
2000
0000
0000
3000
,  // measure 36
1000
0000
0000
0000
,  // measure 37
0002
0000
0000
0003
,  // measure 38
0001
0000
0000
0000
,  // measure 39
0200
0000
0000
0300
,  // measure 40
0100
0000
0000
0000
,  // measure 41
1000
1000
1000
1000
,  // measure 42
0000
0000
0000
0000
,  // measure 43
0001
0001
0001
0001
,  // measure 44
0000
0000
0000
0000
,  // measure 45
0010
0010
0010
0010
,  // measure 46
0000
0000
0000
0000
,  // measure 47
0100
0100
0100
0100
,  // measure 48
0000
0000
0000
0000
,  // measure 49
1000
1000
1000
1000
,  // measure 50
0000
0000
0000
0000
,  // measure 51
0100
0100
0100
0100
,  // measure 52
0000
0000
0000
0000
,  // measure 53
0010
0010
0010
0010
,  // measure 54
0020
0000
0000
0030
,  // measure 55
0010
0000
0010
0000
,  // measure 56
1000
0000
0001
0000
,  // measure 57
0001
0000
1000
0000
,  // measure 58
0100
0000
0010
0000
,  // measure 59
0100
0000
0010
0000
,  // measure 60
0100
0000
1000
0000
,  // measure 61
1000
0000
0001
0000
,  // measure 62
0001
0000
1000
0000
;

//---------------dance-single - Chewi----------------
#NOTES:
     dance-single:
     Chewi:
     Easy:
     5:
     0.253,0.384,0.230,0.134,0.000: // measure 1
0000
0000
0000
0000
,  // measure 2
0000
0000
0000
0000
,  // measure 3
0000
0000
0000
0000
,  // measure 4
0000
0000
0000
0000
,  // measure 5
1000
1000
1000
0000
,  // measure 6
0001
1000
1001
0000
,  // measure 7
0001
0001
0001
0000
,  // measure 8
2002
0000
0000
3003
,  // measure 9
0001
0000
0100
0000
,  // measure 10
0010
0000
0001
0000
,  // measure 11
0100
0000
1000
0000
,  // measure 12
0010
0000
0100
0000
,  // measure 13
1000
0000
0100
0000
,  // measure 14
0001
0000
1001
0000
,  // measure 15
0001
0000
0100
0000
,  // measure 16
1000
0000
1001
0000
,  // measure 17
2000
0000
0001
0000
,  // measure 18
3001
1000
0010
0100
,  // measure 19
0020
0000
0100
0000
,  // measure 20
0130
0010
1000
0001
,  // measure 21
2000
0000
0100
0000
,  // measure 22
3100
0010
0001
0100
,  // measure 23
0002
0000
0100
0000
,  // measure 24
0103
0010
1000
0001
,  // measure 25
1000
0100
0100
0000
,  // measure 26
0001
0010
0001
0000
,  // measure 27
0001
0010
0100
0000
,  // measure 28
1000
0100
0010
0000
,  // measure 29
0001
1000
1000
0000
,  // measure 30
0010
0100
0001
0000
,  // measure 31
1000
0100
0010
0000
,  // measure 32
0001
1000
0001
1000
,  // measure 33
0002
0000
0000
0003
,  // measure 34
0001
1000
0010
1000
,  // measure 35
2000
0000
0000
3000
,  // measure 36
1000
0001
0100
0001
,  // measure 37
0002
0000
0000
0003
,  // measure 38
0001
0010
0100
1000
,  // measure 39
0200
0000
0000
0300
,  // measure 40
2002
0000
0000
3003
,  // measure 41
1000
1000
0001
0001
,  // measure 42
0000
0000
0000
0000
,  // measure 43
0010
0010
0100
0100
,  // measure 44
0000
0000
0000
0000
,  // measure 45
1000
1001
0001
1001
,  // measure 46
0000
0000
0000
0000
,  // measure 47
0001
1001
1000
1001
,  // measure 48
0000
0000
0000
0000
,  // measure 49
0001
0101
1000
1100
,  // measure 50
0000
0000
0000
0000
,  // measure 51
0110
0110
1001
1001
,  // measure 52
0000
0000
0000
0000
,  // measure 53
1001
1001
0110
0110
,  // measure 54
2002
0000
0000
3003
,  // measure 55
0001
1000
1001
0000
,  // measure 56
1000
0100
0001
0000
,  // measure 57
0001
1000
1001
0000
,  // measure 58
0100
0100
0010
0010
,  // measure 59
0100
0010
0110
0000
,  // measure 60
0100
0010
1000
0000
,  // measure 61
1000
0001
1001
0000
,  // measure 62
0001
0010
0100
1000
;

//---------------dance-single - Chewi----------------
#NOTES:
     dance-single:
     Chewi:
     Medium:
     6:
     0.297,0.325,0.134,0.057,0.000: // measure 1
0000
0000
0000
0000
,  // measure 2
0000
0000
0000
0000
,  // measure 3
0000
0000
0000
0000
,  // measure 4
0000
0000
0000
0000
,  // measure 5
1000
0000
1000
0000
0001
1000
0001
0000
,  // measure 6
0001
0000
0001
0000
1000
0001
1000
0000
,  // measure 7
0010
1000
0100
0001
,  // measure 8
0020
0000
0000
0030
,  // measure 9
0001
1000
0010
0100
,  // measure 10
0001
1000
0100
0010
,  // measure 11
0001
1000
1001
0100
,  // measure 12
0010
0100
0110
0000
,  // measure 13
1000
0100
0010
0001
,  // measure 14
1000
0100
0001
0100
,  // measure 15
0001
0100
0010
1000
,  // measure 16
2002
0000
0000
3003
,  // measure 17
1000
1000
1000
1000
,  // measure 18
0001
1000
0100
0000
1000
0001
0100
0000
,  // measure 19
0010
0010
0010
0010
,  // measure 20
1000
0010
0100
0000
0001
0100
0010
0000
,  // measure 21
1000
1000
1000
1000
,  // measure 22
0001
1000
0100
0000
1000
0001
0010
0000
,  // measure 23
0100
0100
0100
0100
,  // measure 24
0220
0000
0000
0330
,  // measure 25
0001
0000
0001
1000
0001
0000
0000
0000
,  // measure 26
1000
0000
1000
0001
1000
0000
0000
0000
,  // measure 27
0001
0100
1000
0000
,  // measure 28
1000
0010
0001
0000
,  // measure 29
0010
0000
0010
0100
0010
0000
0000
0000
,  // measure 30
0100
0000
0100
0010
0100
0000
0000
0000
,  // measure 31
0100
0001
0010
0000
,  // measure 32
0010
1000
0100
0000
,  // measure 33
0110
0010
0100
0000
,  // measure 34
0001
1000
0010
0100
,  // measure 35
0101
0100
0001
0000
,  // measure 36
0001
0100
1000
0100
,  // measure 37
1001
0001
1000
0000
,  // measure 38
1000
0010
0001
0010
,  // measure 39
0110
0100
0010
0000
,  // measure 40
0001
1000
0001
0000
1000
0001
1000
0000
,  // measure 41
0100
0101
0100
0101
,  // measure 42
0000
0000
0000
0000
,  // measure 43
0001
1000
0010
0100
,  // measure 44
0000
0000
0000
0000
,  // measure 45
1000
1001
0001
1001
,  // measure 46
0000
0000
0000
0000
,  // measure 47
0010
0001
0100
1000
,  // measure 48
0000
0000
0000
0000
,  // measure 49
0010
0010
0100
0101
,  // measure 50
0000
0000
0000
0000
,  // measure 51
0001
1000
0100
1100
,  // measure 52
0000
0000
0000
0000
,  // measure 53
1000
0100
0010
0001
,  // measure 54
2000
0000
0000
3000
,  // measure 55
0001
1000
0001
0000
0100
0000
0000
0000
,  // measure 56
0010
0001
0100
1000
,  // measure 57
0010
1000
0010
0000
1000
0000
0000
0000
,  // measure 58
1000
0010
0100
0001
,  // measure 59
1000
0001
1000
0000
0001
0000
0000
0000
,  // measure 60
1000
0100
0001
0010
,  // measure 61
0100
0010
0100
0000
0010
0000
0000
0000
,  // measure 62
0001
0010
0100
1000
;

//---------------dance-single - Chewi----------------
#NOTES:
     dance-single:
     Chewi:
     Hard:
     10:
     0.484,0.473,0.421,0.096,0.000: // measure 1
0000
0000
0000
0000
,  // measure 2
0000
0000
0000
0000
,  // measure 3
0000
0000
0000
0000
,  // measure 4
0000
0000
0000
0000
,  // measure 5
1000
0100
1000
0000
0002
0000
0103
0000
,  // measure 6
0001
0100
0001
0000
1100
0000
0011
0000
,  // measure 7
1000
0010
1000
0000
0002
0000
0013
0000
,  // measure 8
0110
1001
0110
1001
,  // measure 9
1000
0100
0010
0001
1000
0100
0010
0000
,  // measure 10
0001
0010
0100
1000
0001
0010
0100
0000
,  // measure 11
1000
0100
0010
0000
0011
0000
0101
0000
,  // measure 12
0010
0000
0100
0100
0010
0100
0010
0000
,  // measure 13
1000
0010
0100
0001
1000
0000
0010
0100
,  // measure 14
0001
0010
0100
0000
1000
0000
1100
0000
,  // measure 15
0001
0010
0100
1000
0010
0000
0100
0000
,  // measure 16
0010
0100
0010
0100
0001
1000
0001
1000
,  // measure 17
0002
0010
1000
0103
,  // measure 18
0100
0010
1000
0001
0010
0100
1000
0010
,  // measure 19
2000
0100
0001
3010
,  // measure 20
1000
0100
0010
0001
1000
0100
1000
0100
,  // measure 21
0020
0001
0100
0031
,  // measure 22
0001
0100
1000
0100
0001
0100
1000
0010
,  // measure 23
0200
1000
0010
1300
,  // measure 24
1000
0001
0100
0010
1000
0001
0010
0100
,  // measure 25
1000
0001
1000
0100
0010
0000
0011
0000
,  // measure 26
0001
0100
1000
0100
0001
0010
1000
0010
,  // measure 27
0001
0010
0100
1000
0010
0000
1010
0000
,  // measure 28
1000
0010
0100
0010
1000
0100
0010
0001
,  // measure 29
0100
0010
0100
0001
0010
0000
0011
0000
,  // measure 30
0001
0010
0100
1000
0001
0010
0100
0000
,  // measure 31
1000
0010
0100
0010
1000
0000
1001
0000
,  // measure 32
1000
1000
0001
0001
1000
0100
0010
0001
,  // measure 33
2000
0100
0010
3100
,  // measure 34
0011
0101
1100
1010
,  // measure 35
0020
0000
1000
0000
0100
0000
1000
0030
,  // measure 36
1100
0101
0011
0110
,  // measure 37
0001
0010
0001
0000
1000
0100
1000
0000
,  // measure 38
0001
1000
0010
0100
0001
1000
0100
0010
,  // measure 39
0001
0010
0001
0000
1000
0100
1000
0000
,  // measure 40
0001
1000
0100
0010
0001
1000
0010
0000
,  // measure 41
1010
0100
0001
0010
,  // measure 42
0000
0000
0000
0000
,  // measure 43
0011
0110
1000
0100
,  // measure 44
0000
0000
0000
0000
,  // measure 45
1100
1001
0101
0010
,  // measure 46
0000
0000
0000
0000
,  // measure 47
0110
1001
0110
1001
,  // measure 48
0000
0000
0000
0000
,  // measure 49
0110
1001
1100
1001
,  // measure 50
0000
0000
0000
0000
,  // measure 51
0110
1001
0101
1001
,  // measure 52
0000
0000
0000
0000
,  // measure 53
1010
0011
0101
1100
,  // measure 54
2002
0000
0000
3003
,  // measure 55
0100
1000
0010
1000
0100
0000
0010
0000
,  // measure 56
0001
0100
0001
0100
1000
0100
1000
0100
,  // measure 57
1000
0010
0001
0010
1000
0000
0010
0000
,  // measure 58
0001
0010
0001
0100
0001
0010
0100
1000
,  // measure 59
0001
1000
0100
1000
0001
0000
0100
0000
,  // measure 60
0010
0100
0001
0100
0010
0100
0001
0000
,  // measure 61
1000
0100
0010
0100
1000
0010
1000
0000
,  // measure 62
0010
0001
0010
1000
0010
0001
0010
0000
;
