#TITLE:KUNG-FU MAMA;
#SUBTITLE:;
#ARTIST:seiya-murai feat.ALT;
#TITLETRANSLIT:;
#SUBTITLETRANSLIT:;
#ARTISTTRANSLIT:;
#GENRE:;
#CREDIT:Chewi☆;
#MENUCOLOR:;
#METERTYPE:DDR X;
#BANNER:KUNG-FU MAMA.png;
#BACKGROUND:KUNG-FU MAMA-bg.png;
#LYRICSPATH:;
#CDTITLE:;
#MUSIC:KUNG-FU MAMA.mp3;
#OFFSET:-0.525;
#SAMPLESTART:58.103;
#SAMPLELENGTH:15.000;
#SELECTABLE:YES;
#LISTSORT:;
#DISPLAYBPM:150.000;
#BPMS:0.000=150.000;
#STOPS:;
#BGCHANGES:;
#ATTACKS:;

//---------------dance-single - Chewi----------------
#NOTES:
     dance-single:
     Chewi:
     Beginner:
     1:
     0.083,0.092,0.000,0.000,0.000: // measure 1
0000
0000
0000
0000
,  // measure 2
0000
0000
0000
0000
,  // measure 3
0000
0000
0000
0000
,  // measure 4
0000
0000
0000
0000
,  // measure 5
1000
0000
0000
0000
,  // measure 6
0010
0000
0000
0000
,  // measure 7
0001
0000
0000
0000
,  // measure 8
0100
0000
0000
0000
,  // measure 9
0010
0000
0000
0000
,  // measure 10
0010
0000
0000
0000
,  // measure 11
0001
0000
0000
0000
,  // measure 12
1000
0000
0000
0000
,  // measure 13
1000
0000
0000
0000
,  // measure 14
1000
0000
0000
0000
,  // measure 15
0100
0000
0000
0000
,  // measure 16
0100
0000
0000
0000
,  // measure 17
0001
0000
0000
0000
,  // measure 18
0001
0000
0000
0000
,  // measure 19
0100
0000
0000
0000
,  // measure 20
0100
0000
0000
0000
,  // measure 21
0001
0000
0000
0000
,  // measure 22
0010
0000
0000
0000
,  // measure 23
0100
0000
0000
0000
,  // measure 24
0010
0000
0000
0000
,  // measure 25
0100
0000
0000
0000
,  // measure 26
1000
0000
0000
0000
,  // measure 27
1000
0000
0000
0000
,  // measure 28
0001
0000
0000
0000
,  // measure 29
0010
0000
0000
0000
,  // measure 30
0100
0000
0000
0000
,  // measure 31
0100
0000
0000
0000
,  // measure 32
1000
0000
0000
0000
,  // measure 33
0001
0000
0000
0000
,  // measure 34
1000
0000
0000
0000
,  // measure 35
0001
0000
0000
0000
,  // measure 36
1000
0000
0000
0000
,  // measure 37
1000
0000
0000
0000
,  // measure 38
1000
0000
0000
0000
,  // measure 39
1000
0000
0000
0000
,  // measure 40
1000
0000
0000
0000
,  // measure 41
0001
0000
0000
0000
,  // measure 42
0001
0000
0000
0000
,  // measure 43
0001
0000
0000
0000
,  // measure 44
0100
0000
0000
0000
,  // measure 45
0010
0000
0000
0000
,  // measure 46
0010
0000
0000
0000
,  // measure 47
1000
0000
0000
0000
,  // measure 48
1000
0000
0000
0000
,  // measure 49
0100
0000
0000
0000
,  // measure 50
1000
0000
0000
0000
,  // measure 51
0001
0000
0000
0000
,  // measure 52
0001
0000
0000
0000
,  // measure 53
0100
0000
0000
0000
,  // measure 54
0001
0000
0000
0000
,  // measure 55
0010
0000
0000
0000
,  // measure 56
1000
0000
0000
0000
,  // measure 57
0001
0000
0000
0000
,  // measure 58
1000
0000
0000
0000
,  // measure 59
0010
0000
0000
0000
,  // measure 60
0100
0000
0000
0000
,  // measure 61
0001
0000
0000
0000
,  // measure 62
1000
0000
0000
0000
,  // measure 63
0100
0000
0000
0000
,  // measure 64
0010
0000
0000
0000
;

//---------------dance-single - Chewi----------------
#NOTES:
     dance-single:
     Chewi:
     Easy:
     5:
     0.258,0.278,0.000,0.310,0.000: // measure 1
0000
0000
0000
0000
,  // measure 2
0000
0000
0000
0000
,  // measure 3
0000
0000
0000
0000
,  // measure 4
0000
0000
0000
0000
,  // measure 5
2000
0000
0000
0000
,  // measure 6
3020
0000
0000
0000
,  // measure 7
0032
0000
0000
0000
,  // measure 8
0203
0000
0000
0000
,  // measure 9
0310
0000
0000
0010
,  // measure 10
0010
0000
0000
0001
,  // measure 11
0001
0000
0000
0001
,  // measure 12
1000
0010
0100
0001
,  // measure 13
1000
0000
0000
1000
,  // measure 14
1000
0000
0000
0100
,  // measure 15
0100
0000
0000
0010
,  // measure 16
0100
1000
0010
0100
,  // measure 17
0002
0000
2003
0000
,  // measure 18
3002
0000
2003
0000
,  // measure 19
3200
0000
0320
0000
,  // measure 20
0230
0000
0320
0000
,  // measure 21
0031
0000
0001
1000
,  // measure 22
0010
0000
0100
0100
,  // measure 23
0100
0000
0010
0010
,  // measure 24
0010
0000
0000
1000
,  // measure 25
0100
0000
0010
0100
,  // measure 26
1000
0000
1000
0001
,  // measure 27
1000
0000
0000
0000
,  // measure 28
0001
0100
0010
1000
,  // measure 29
0010
0000
0100
0001
,  // measure 30
0100
0000
0001
0010
,  // measure 31
0100
0000
1000
0100
,  // measure 32
1000
0000
0000
1000
,  // measure 33
0001
0000
0100
0010
,  // measure 34
1000
0010
0100
0000
,  // measure 35
0000
0001
0001
1000
,  // measure 36
1000
0001
0010
0100
,  // measure 37
2000
0000
3200
0000
,  // measure 38
2300
0000
0100
3100
,  // measure 39
1000
0001
0100
0010
,  // measure 40
1000
0001
0100
0001
,  // measure 41
0002
0000
0203
0000
,  // measure 42
0302
0000
0100
0103
,  // measure 43
0001
0001
0100
1000
,  // measure 44
0100
0001
0010
1000
,  // measure 45
0020
0000
2030
0000
,  // measure 46
3020
0000
1000
1030
,  // measure 47
1000
0010
0001
0010
,  // measure 48
1000
0100
0001
0100
,  // measure 49
0200
0000
0320
0000
,  // measure 50
2030
0000
0001
3001
,  // measure 51
0001
0010
1000
0010
,  // measure 52
0001
0100
1000
0100
,  // measure 53
0200
0000
0000
0000
,  // measure 54
0302
0000
0000
0000
,  // measure 55
0023
0000
0000
0000
,  // measure 56
2030
0000
0000
0000
,  // measure 57
3002
0000
0000
0000
,  // measure 58
2003
0000
0000
0000
,  // measure 59
3020
0000
0000
0000
,  // measure 60
0230
0000
0000
0000
,  // measure 61
0301
0001
0001
0001
,  // measure 62
1000
1000
1000
1000
,  // measure 63
0100
0100
0100
0100
,  // measure 64
0010
0010
0010
0010
;

//---------------dance-single - Chewi----------------
#NOTES:
     dance-single:
     Chewi:
     Medium:
     9:
     0.418,0.402,0.359,0.291,0.078: // measure 1
0000
0000
0000
0000
,  // measure 2
0000
0000
0000
0000
,  // measure 3
0000
0000
0000
0000
,  // measure 4
0000
0000
0000
0000
,  // measure 5
2000
3100
0002
0103
,  // measure 6
2000
3010
0002
0013
,  // measure 7
0100
0010
0100
0000
0010
0100
0010
0000
,  // measure 8
0220
0000
0000
0330
,  // measure 9
0020
0000
0000
0000
0030
0001
0010
0002
,  // measure 10
0000
0000
0000
0000
0003
1000
0001
2000
,  // measure 11
0000
0000
0000
0000
3000
0010
0100
0010
,  // measure 12
1000
0000
0000
1100
0000
0011
0000
0000
,  // measure 13
0002
0000
0000
0000
0000
1003
0001
2000
,  // measure 14
0000
0000
0000
0000
3000
0010
0100
0002
,  // measure 15
0000
0000
0000
0000
0000
0003
0010
0100
,  // measure 16
0010
0001
0000
0101
0000
1010
0000
0000
,  // measure 17
2000
3010
0002
0013
,  // measure 18
2000
3100
0002
0103
,  // measure 19
1000
0000
1010
0000
0001
0100
0001
0000
,  // measure 20
1000
0000
1100
0000
0001
0010
0001
0000
,  // measure 21
0010
0000
0000
0100
0000
1000
0000
1001
,  // measure 22
0000
0000
1000
0010
,  // measure 23
0100
0000
0000
0000
0001
0000
1000
0001
,  // measure 24
0000
0000
0000
0000
0000
0000
0010
0001
,  // measure 25
0010
0000
0000
0001
0000
1000
0000
1010
,  // measure 26
0000
0000
1000
0100
,  // measure 27
0010
0000
0000
0000
,  // measure 28
0002
0013
2000
3010
,  // measure 29
0001
0000
0000
1000
0000
0010
0000
0110
,  // measure 30
0000
0000
0010
1000
,  // measure 31
0001
0000
0000
0000
0010
0000
0100
0010
,  // measure 32
0000
0000
0000
0000
0000
0000
0001
0100
,  // measure 33
0001
0000
0000
0100
0010
1000
0100
0000
,  // measure 34
1100
0011
1100
0000
,  // measure 35
0000
1000
0010
0100
,  // measure 36
0101
0101
0011
0011
,  // measure 37
0000
0000
0000
0000
0001
0000
0000
0001
0000
0000
0001
0000
1000
0000
0000
1000
,  // measure 38
0000
0000
1000
0000
0001
0000
0000
0001
0000
0000
0001
0000
1000
0000
0000
0000
,  // measure 39
0000
0000
0000
0000
0010
0000
0000
0010
0000
0000
0010
0000
0100
0000
0010
0000
,  // measure 40
0110
0110
1001
1001
,  // measure 41
0000
0000
0000
0000
1000
0000
0000
1000
0000
0000
1000
0000
0100
0000
0000
0100
,  // measure 42
0000
0000
0100
0000
0010
0000
0000
0010
0000
0000
0010
0000
0010
0000
0000
0000
,  // measure 43
0000
0000
0000
0000
0001
0000
0000
1000
0000
0000
0001
0000
0010
0000
0000
0000
,  // measure 44
0011
1100
0011
1100
,  // measure 45
0000
0000
0000
0000
1000
0000
0000
1000
0000
0000
1000
0000
0001
0000
0000
0001
,  // measure 46
0000
0000
0001
0000
1000
0000
0000
1000
0000
0000
1000
0000
0001
0000
0000
0000
,  // measure 47
0000
0000
0000
0000
0100
0000
0000
0100
0000
0000
0100
0000
0010
0000
0100
0000
,  // measure 48
0110
0110
1001
1001
,  // measure 49
0000
0000
0000
0000
0001
0000
0000
0001
0000
0000
0001
0000
0010
0000
0000
0010
,  // measure 50
0000
0000
0010
0000
0100
0000
0000
0100
0000
0000
0100
0000
0100
0000
0000
0000
,  // measure 51
0000
0000
0000
0000
1000
0000
0000
0001
0000
0000
1000
0000
0100
0000
0000
0000
,  // measure 52
1100
0011
1100
0011
,  // measure 53
2000
3100
0002
0103
,  // measure 54
2000
3010
0002
0013
,  // measure 55
0100
0010
0100
0000
0010
0100
0010
0000
,  // measure 56
0001
0101
1000
1010
,  // measure 57
0002
0013
2000
3010
,  // measure 58
0002
0103
2000
3100
,  // measure 59
0010
0100
0010
0000
0100
0010
0100
0000
,  // measure 60
1000
1010
0001
0101
,  // measure 61
0200
0010
0010
0310
,  // measure 62
0020
0100
0100
0130
,  // measure 63
2000
0001
0001
3001
,  // measure 64
0002
1000
1000
1003
;

//---------------dance-single - Chewi----------------
#NOTES:
     dance-single:
     Chewi:
     Hard:
     11:
     0.512,0.526,0.310,0.223,0.126: // measure 1
0000
0000
0000
0000
,  // measure 2
0000
0000
0000
0000
,  // measure 3
0000
0000
0000
0000
,  // measure 4
0000
0000
0000
0000
,  // measure 5
0001
0100
0001
0100
0010
1000
0010
0000
,  // measure 6
1000
0100
1000
0100
0010
0001
0010
0000
,  // measure 7
0001
1000
0010
0100
0001
0100
0001
0000
,  // measure 8
0202
0000
0000
0303
,  // measure 9
2002
0000
0000
0000
3003
1000
0001
2000
,  // measure 10
0000
0000
0000
0000
3000
0100
0010
0002
,  // measure 11
0000
0000
0000
0000
0003
1000
0010
0100
,  // measure 12
0001
0000
0010
0001
0000
0011
0000
0000
,  // measure 13
0202
0000
0000
0000
0303
0001
0100
0020
,  // measure 14
0000
0000
0000
0000
0030
1000
0010
0200
,  // measure 15
0000
0000
0000
0000
0300
0010
0100
0001
,  // measure 16
1000
0100
0010
0001
0000
0011
0000
0000
,  // measure 17
0001
0000
1000
0000
0000
0010
0000
0000
0010
0000
0000
0100
0000
0000
0001
0000
,  // measure 18
0010
0000
0000
0100
0000
0000
0100
0000
1000
0000
0000
0010
0000
0000
0100
0000
,  // measure 19
0010
0000
1000
0000
0000
1000
0000
0000
0100
0000
0000
0010
0000
0000
0001
0000
,  // measure 20
0010
0000
0000
0010
0000
0000
0100
0000
1000
0000
0000
0001
0000
0000
0100
0000
,  // measure 21
0010
0000
0000
0000
0000
1000
0000
0000
0000
0000
0001
0000
0010
0000
0200
0000
,  // measure 22
0000
0000
0300
0000
1000
0100
0010
0100
,  // measure 23
2000
0000
0000
3010
0100
0001
0010
0002
,  // measure 24
0000
0000
0000
0000
0003
0000
1000
1000
,  // measure 25
0200
0000
0300
1000
0010
0100
0001
2000
,  // measure 26
0000
0000
3000
0000
0010
1000
0100
1000
,  // measure 27
0020
0000
0000
0030
,  // measure 28
1000
0000
1010
0000
0001
1000
0001
0100
,  // measure 29
0010
0000
0000
0000
0000
1000
0000
0000
0000
0000
0001
0000
0100
0000
0020
0000
,  // measure 30
0000
0000
0030
0000
1000
0100
0010
0100
,  // measure 31
2000
0000
3000
0001
0000
1000
0010
0200
,  // measure 32
0000
0000
0000
0000
0300
0000
0001
0001
,  // measure 33
0020
0000
0030
0010
0100
1000
0010
1000
,  // measure 34
1100
1010
1100
0000
,  // measure 35
0000
0200
0320
0032
,  // measure 36
0103
1010
0101
1010
,  // measure 37
0000
0000
1000
0000
1000
0000
0000
1000
0000
0000
1000
0000
0001
0000
0000
0001
,  // measure 38
0000
0000
0001
0000
0010
0000
0000
0010
0000
0000
0010
0000
0110
0000
0000
0000
,  // measure 39
0000
0000
0100
0000
0100
0000
0000
0100
0000
0000
0100
0000
0100
0000
0010
0000
,  // measure 40
0011
0000
1100
0000
1000
0001
0100
0010
,  // measure 41
0000
0000
1000
0000
1000
0000
0000
1000
0000
0000
1000
0000
0010
0000
0000
0010
,  // measure 42
0000
0000
0010
0000
0100
0000
0000
0100
0000
0000
0100
0000
0101
0000
0000
0000
,  // measure 43
0000
0000
0001
0000
0001
0000
0000
0001
0000
0000
0001
0000
1000
0000
0001
0000
,  // measure 44
0011
1100
1001
0101
,  // measure 45
0000
0000
0100
0000
0010
0000
0000
1000
0000
0000
0001
0000
0010
0000
0000
0100
,  // measure 46
0000
0000
1000
0000
0010
0000
0000
0010
0000
0000
0100
0000
0110
0000
0000
0000
,  // measure 47
0000
0000
0001
0000
0010
0000
0000
0100
0000
0000
1000
0000
0010
0000
1000
0000
,  // measure 48
1100
0101
1100
0101
,  // measure 49
0000
0000
0001
0000
1000
0000
0000
0100
0000
0000
0010
0000
0001
0000
0000
0100
,  // measure 50
0000
0000
0010
0000
1000
0000
0000
1000
0000
0000
0100
0000
0110
0000
0000
0000
,  // measure 51
0000
0000
0001
0000
0010
0000
0000
0100
0000
0000
1000
0000
0010
0000
1000
0000
,  // measure 52
1100
1010
1100
1010
,  // measure 53
1000
0001
1000
0100
0010
0001
1000
0000
,  // measure 54
0001
1000
0001
0100
0010
1000
0001
0000
,  // measure 55
1000
0010
0100
0010
1000
0100
0010
0000
,  // measure 56
0001
0010
0100
1000
0010
1000
1100
0000
,  // measure 57
1000
0001
0100
0010
0100
0001
0100
0000
,  // measure 58
0001
0010
0100
1000
0010
1000
0100
0000
,  // measure 59
1000
0010
0100
0010
1000
0001
0010
0000
,  // measure 60
0001
0010
0100
1000
0010
1000
1100
0000
,  // measure 61
1000
0001
0100
0010
1000
0001
0100
0010
,  // measure 62
1000
0100
0010
0001
1000
0100
0010
0001
,  // measure 63
1000
0010
0100
0001
1000
0010
0100
0001
,  // measure 64
0010
0100
1000
0001
0010
0100
1000
0010
;
