#TITLE:KOROBUSHKA (Ryu☆ Remix);
#SUBTITLE:;
#ARTIST:Ryu☆;
#TITLETRANSLIT:;
#SUBTITLETRANSLIT:;
#ARTISTTRANSLIT:;
#GENRE:;
#CREDIT:Chewi☆;
#MENUCOLOR:#FFFF00;
#METERTYPE:DDR X;
#BANNER:KOROBUSHKA (Ryu Remix).png;
#BACKGROUND:KOROBUSHKA (Ryu Remix)-bg.png;
#LYRICSPATH:;
#CDTITLE:;
#MUSIC:KOROBUSHKA (Ryu Remix).mp3;
#OFFSET:-0.525;
#SAMPLESTART:22.464;
#SAMPLELENGTH:15.000;
#SELECTABLE:YES;
#LISTSORT:;
#DISPLAYBPM:175.000;
#BPMS:0.000=175.000;
#STOPS:;
#BGCHANGES:;
#ATTACKS:;

//---------------dance-single - Chewi----------------
#NOTES:
     dance-single:
     Chewi:
     Beginner:
     2:
     0.100,0.138,0.021,0.021,0.000:
0000
0000
0000
0000
,
0000
0000
0000
0000
,
0000
0000
0000
0000
,
0000
0000
0000
0000
,
1000
0000
0000
0000
,
0100
0000
0000
0000
,
0010
0000
0000
0000
,
0001
0000
0000
0000
,
1001
0000
0000
0000
,
0100
0000
0000
0000
,
0010
0000
0000
0000
,
0100
0000
0000
0000
,
0010
0000
0000
0000
,
1000
0000
0000
0000
,
0001
0000
0000
0000
,
1000
0000
0000
0000
,
0100
0000
0000
0000
,
0100
0000
0000
0000
,
0010
0000
0000
0000
,
0010
0000
0000
0000
,
0001
0000
0000
0000
,
0001
0000
0000
0000
,
1000
0000
0000
0000
,
1000
0000
0000
0000
,
0001
0000
0000
0000
,
1000
0000
0000
0000
,
0100
0000
0000
0000
,
0020
0000
0000
0030
,
0010
0000
0000
0000
,
0100
0000
0000
0000
,
1000
0000
0000
0000
,
0002
0000
0000
0003
,
0001
0000
0000
0000
,
1000
0000
0000
0000
,
0001
0000
0000
0000
,
1000
0000
0000
0000
,
0010
0000
0000
0000
,
0100
0000
0000
0000
,
0100
0000
0000
0000
,
0010
0000
0000
0000
,
1000
0000
0000
0000
,
0100
0000
0000
0000
,
0010
0000
0000
0000
,
0001
0000
0000
0000
,
0100
0000
0000
0000
,
0001
0000
0000
0000
,
0010
0000
0000
0000
,
1000
0000
0000
0000
,
0001
0000
0000
0000
,
0010
0000
0000
0000
,
0100
0000
0000
0000
,
1000
0000
0000
0000
,
0010
0000
0000
0000
,
1000
0000
0000
0000
,
0100
0000
0000
0000
,
0010
0000
0000
0000
,
0100
0000
0000
0000
,
1000
0000
0000
0000
,
0001
0000
0000
0000
,
0100
0000
0000
0000
,
0010
0000
0000
0000
,
0100
0000
0000
0000
,
0001
0000
0000
0000
,
1000
0000
0000
0000
,
1001
0000
0000
0000
;

//---------------dance-single - Chewi----------------
#NOTES:
     dance-single:
     Chewi:
     Easy:
     5:
     0.368,0.360,0.032,0.204,0.000:
0000
0000
0000
0000
,
0000
0000
0000
0000
,
0000
0000
0000
0000
,
0000
0000
0000
0000
,
1000
1000
1000
1000
,
0100
0100
0100
0100
,
0010
0010
0010
0010
,
0100
0010
0020
0030
,
0001
0010
0100
1000
,
0001
0010
0100
1000
,
0001
0100
1000
0100
,
0001
1000
2000
3000
,
1000
0100
0010
0001
,
1000
0100
0010
0001
,
1000
0010
0001
0010
,
0100
0010
0020
0030
,
0100
0010
1000
0001
,
0010
0100
1000
0001
,
1000
0100
0001
0100
,
0100
0010
0020
0030
,
1000
0100
0010
0001
,
1000
0100
0001
0100
,
1000
0010
0100
0001
,
0001
1000
2000
3000
,
1000
0100
0001
0100
,
1000
0010
0001
0010
,
1000
0001
0100
0010
,
0220
0000
0000
0330
,
0001
0100
1000
0100
,
0001
0010
1000
0010
,
0001
0100
0010
0001
,
2002
0000
0000
3003
,
2000
0000
3100
0000
,
0001
0100
1000
0100
,
0002
0000
1003
0000
,
0010
0100
1000
0001
,
2000
0000
3010
0000
,
0002
0000
0103
0000
,
1000
0001
0001
1000
,
1000
0010
0001
0010
,
0100
0010
0001
0010
,
0100
1000
0100
0010
,
0100
1000
0001
1000
,
0001
1000
2000
3000
,
1000
0010
0001
0010
,
1000
0100
0001
0100
,
1000
0001
0100
0001
,
0010
0100
0200
0300
,
1000
0010
0001
0100
,
1000
0100
0001
0010
,
1000
0100
0001
0010
,
0001
0100
1000
0010
,
0100
0010
1000
0100
,
0010
1000
0100
0001
,
0010
0100
0001
0010
,
1000
0100
0001
0010
,
0100
0010
1000
0010
,
0100
0001
0100
0010
,
1000
0001
0010
0100
,
0010
0100
0200
0300
,
0100
0010
0001
1000
,
0010
1000
0100
0010
,
0001
1000
0100
0010
,
0010
0100
0200
0300
,
2002
0000
0000
0000
,
0000
0000
0000
0000
,
0000
0000
0000
0000
,
3003
0000
0000
0000
;

//---------------dance-single - Chewi----------------
#NOTES:
     dance-single:
     Chewi:
     Medium:
     9:
     0.442,0.504,0.376,0.279,0.000:
0000
0000
0000
0000
,
0000
0000
0000
0000
,
0000
0000
0000
0000
,
0000
0000
0000
0000
,
1000
0000
0000
0001
1000
0000
0000
0000
,
0010
0000
0000
0100
0010
0000
0000
0000
,
0001
0000
0000
1000
0001
0000
0000
0000
,
0110
0110
0220
0330
,
0001
0000
1000
0000
0100
1000
0100
0000
,
1000
0000
0001
0000
0100
0001
0100
0000
,
0010
0000
0100
0000
0010
0100
0010
0000
,
0110
0110
0220
0330
,
1000
0100
0001
0010
,
0001
0100
1000
0010
,
0001
0010
0100
1000
,
1100
0101
2200
3300
,
0001
0000
0001
0000
0001
1000
0001
0000
,
1000
0000
1000
0000
1000
0001
1000
0000
,
0010
0000
0010
0000
0010
0100
0010
0000
,
0110
1001
0220
0330
,
0001
0010
0100
1000
,
0010
0001
0100
1000
,
1000
0010
0100
0001
,
0101
1100
0202
0303
,
1000
0000
1000
0000
1000
1000
1000
0000
,
0100
0010
0100
0010
,
0001
0000
0001
0000
0001
0001
0001
0000
,
2002
0000
0000
3003
,
0100
0000
0010
0000
0010
0010
0010
0000
,
0100
0000
0010
0000
0100
0100
0100
0000
,
0001
0000
1000
0000
0001
1000
0001
0000
,
0220
0000
0000
0330
,
0001
0100
1000
0010
,
0001
0100
0001
0100
,
0001
0010
1000
0100
,
1000
0100
1000
0100
,
1000
0000
0001
0000
1000
0001
1000
0000
,
0010
0000
0100
0000
0010
0100
0010
0000
,
0001
0000
0010
0000
0100
1000
0100
0000
,
1000
1100
0001
0101
,
0110
0100
0010
0100
,
0001
0100
0001
0100
,
1000
0100
0001
0010
,
0100
0100
0100
0000
0220
0000
0330
0000
,
0110
0001
0010
0100
,
1000
0100
0010
0100
,
1000
0001
1000
0010
,
0100
0100
0100
0000
0220
0000
0330
0000
,
1100
0001
0010
0001
,
0101
1000
0010
1000
,
1001
0010
0100
0010
,
0220
0000
0000
0330
,
1100
0010
0100
1000
,
0101
0010
0100
0001
,
1001
0010
0100
0010
,
2002
0000
0000
3003
,
1000
0000
0000
0001
1000
0000
0000
0000
,
0010
0000
0000
0100
0010
0000
0000
0000
,
0001
0000
0000
1000
0001
0000
0000
0000
,
0100
0000
0000
0010
0100
0000
0000
0000
,
0010
0000
0000
0001
0010
0000
0000
0000
,
0100
0000
0000
1000
0100
0000
0000
0000
,
1000
0000
0000
0001
1000
0000
0000
0000
,
1001
1001
0220
0330
,
0220
0000
0000
0000
,
0000
0000
0000
0000
,
0000
0000
0000
0000
,
0330
0000
0000
0000
;

//---------------dance-single - Chewi----------------
#NOTES:
     dance-single:
     Chewi:
     Hard:
     11:
     0.637,0.612,0.387,0.398,0.000:
0000
0000
0000
0000
,
0000
0000
0000
0000
,
0000
0000
0000
0000
,
0000
0000
0000
0000
,
0000
1000
0000
0100
0010
0000
0001
0010
,
0100
0000
0000
1000
0100
0000
1000
0001
,
0100
0000
1000
0001
0100
0000
0010
0000
,
0110
1001
0220
0330
,
1000
0000
0010
0100
0001
0100
0010
1000
,
0001
0000
1000
0100
0001
0000
0001
0100
,
1000
0000
0000
0001
1000
0000
0010
0000
,
0110
1010
0220
0330
,
0000
0100
0000
0001
0010
0000
0100
0010
,
0001
0000
0000
0010
0100
0000
1000
0010
,
0100
0000
0001
0100
1000
0100
0001
0000
,
1001
1100
2002
3003
,
1000
0100
0010
0100
1000
0100
0010
0100
,
1000
0000
0010
0001
0100
0000
0010
0001
,
0100
0000
0100
0010
0100
0000
0010
0000
,
0110
1001
0220
0330
,
0001
0010
0001
0010
0100
0010
0001
0010
,
0100
0000
0010
0001
0100
0000
1000
0010
,
0100
0000
1000
0001
0100
0000
0010
0000
,
0110
1010
0220
0330
,
1000
0100
1000
0100
1000
0100
1000
0100
,
0001
0100
0001
0100
0001
0100
0001
0100
,
0001
0010
0001
0010
0001
0010
0001
0010
,
0220
0000
0000
0330
,
0010
1000
0010
1000
0010
1000
0010
1000
,
0010
0001
0010
0001
0010
0001
0010
0001
,
0100
0001
0100
0001
0100
0001
0100
0001
,
0220
0000
0000
0330
,
0200
0000
1300
0001
0100
1000
0100
0001
,
0020
0000
0130
0010
0002
0000
0013
0100
,
2000
0000
3001
1000
0010
0100
0001
0100
,
0020
0000
0130
0001
2000
0000
3100
0100
,
0020
0000
0130
1000
0001
1000
0010
0100
,
0001
0001
0100
0010
0100
0001
0010
0100
,
1000
0010
1000
0010
0001
0010
1000
0100
,
1001
0101
2002
3003
,
1000
0000
0100
0010
0001
0010
0100
1000
,
0001
0000
0100
1000
0010
0000
0100
0001
,
0010
0000
0100
0010
0001
0000
1000
0000
,
1010
0101
2020
3030
,
0000
0001
0000
0010
0100
0000
0010
0001
,
0100
1000
0000
0010
1000
0000
0010
1000
,
0100
0001
0000
0010
0100
0010
0001
0000
,
0110
1001
0220
0330
,
0001
0100
0001
0100
1000
0100
1000
0100
,
0001
0100
0001
0100
1000
0100
1000
0100
,
0001
0010
1000
0010
0001
0010
1000
0010
,
0100
0110
2002
3003
,
0100
0010
0100
0010
0100
0001
0100
0001
,
0100
0010
0100
0010
0100
1000
0100
1000
,
0010
1000
0010
1000
0010
0100
0010
0100
,
0010
0011
2200
3300
,
0001
0000
1000
0010
0100
0001
0100
0010
,
1000
0000
0001
1000
0100
0000
1000
0001
,
0100
0000
0000
0010
1000
0100
1000
0010
,
0101
0011
0220
0330
,
0000
0001
0010
0100
1000
0000
0010
0100
,
0010
0000
0000
0100
0010
0000
1000
0001
,
0010
0100
0000
1000
0001
0100
1000
0010
,
0100
0110
2002
3003
,
2020
0000
0000
0000
,
0000
0000
0000
0000
,
0000
0000
0000
0000
,
3030
0000
0000
0000
;

//---------------dance-double - Chewi----------------
#NOTES:
     dance-double:
     Chewi:
     Easy:
     4:
     0.359,0.468,0.064,0.290,0.000:
00000000
00000000
00000000
00000000
,
00000000
00000000
00000000
00000000
,
00000000
00000000
00000000
00000000
,
00000000
00000000
00000000
00000000
,
10000000
10000000
10000000
10000000
,
00010000
00010000
00010000
00010000
,
00001000
00001000
00001000
00001000
,
00000001
00000001
00000001
00000001
,
00000100
00000010
00001000
00000000
,
00000100
00001000
00000010
00000000
,
00000100
00010000
00001000
00000000
,
00001000
00100000
00010000
00000000
,
00100000
01000000
10000000
00000000
,
10000000
00100000
01000000
00000000
,
01000000
00010000
00100000
00000000
,
00100000
00100000
00100000
00000000
,
01000000
00100000
00010000
00000000
,
00010000
00001000
00000010
00000000
,
00000001
00000100
00000010
00000000
,
00001000
00000100
00000010
00000000
,
00000100
00001000
00010000
00000000
,
00010000
00001000
00100000
00000000
,
01000000
00100000
00010000
00000000
,
10000000
10000000
10000000
00000000
,
20000000
00000000
30100000
00000000
,
00020000
00000000
00130000
00000000
,
00200000
00000000
00301000
00000000
,
00011000
00000000
00000000
00000000
,
00020000
00000000
00030010
00000000
,
00002000
00000000
00003010
00000000
,
00000002
00000000
00000103
00000000
,
00000110
00000000
00000000
00000000
,
00001000
00000010
00001000
00000010
,
00001000
00010000
00001000
00010000
,
00010000
01000000
00010000
01000000
,
10000000
01000000
00100000
00010000
,
10000000
00100000
10000000
00100000
,
00010000
00100000
00010000
00100000
,
00001000
00100000
00001000
00000000
,
00001000
00010000
00011000
00000000
,
00002000
00003010
00000002
00000013
,
00000100
00000100
00000010
00000010
,
00000001
00001000
00000010
00000100
,
00000001
00001000
00001001
00000000
,
00002000
00003100
00000200
00010300
,
00001000
00010000
01000000
00100000
,
10000000
00010000
00100000
01000000
,
10000000
00010000
10010000
00000000
,
20000000
30100000
00200000
01300000
,
02000000
03010000
00020000
00130000
,
00100000
00010000
00001000
00000100
,
00000010
00000001
00000100
00000000
,
00000002
00000103
00000020
00001030
,
00000200
00001300
00000020
00001030
,
00000100
00010000
00001000
00100000
,
01000000
10000000
00100000
00000000
,
02000000
03100000
20000000
30010000
,
00100000
00100000
01000000
01000000
,
00020000
10030000
20000000
30010000
,
00100000
00001000
00010000
00000100
,
00002000
00003001
00000002
00001003
,
00000010
00000100
00000001
00000100
,
00000020
00000130
00000200
00000310
,
00000010
00001001
00000010
00000100
,
00002000
00000000
00000000
00000000
,
00000000
00000000
00000000
00000000
,
00000000
00000000
00000000
00000000
,
00003000
00000000
00000000
00000000
;

//---------------dance-double - Chewi----------------
#NOTES:
     dance-double:
     Chewi:
     Medium:
     8:
     0.458,0.468,0.226,0.365,0.000: // measure 1
00000000
00000000
00000000
00000000
,  // measure 2
00000000
00000000
00000000
00000000
,  // measure 3
00000000
00000000
00000000
00000000
,  // measure 4
00000000
00000000
00000000
00000000
,  // measure 5
00000000
00100000
00000000
01000000
00100000
00000000
10000000
00000000
,  // measure 6
00010000
00000000
00000000
10000000
00010000
00000000
00100000
00000000
,  // measure 7
00001000
00000000
00000000
00010000
00001000
00000000
00000010
00000000
,  // measure 8
00000110
00000100
00000110
00000000
,  // measure 9
00000002
00000000
00000103
00000000
00000010
00001000
00000100
00000000
,  // measure 10
00001000
00001000
00000001
00000001
,  // measure 11
00001000
00000100
00010000
00001000
,  // measure 12
00010000
01010000
00110000
00000000
,  // measure 13
00200000
00000000
00310000
00000000
00100000
01000000
10000000
00000000
,  // measure 14
00100000
01000000
00010000
00100000
,  // measure 15
01000000
00100000
00010000
00001000
,  // measure 16
00010000
00001100
00001001
00000000
,  // measure 17
00000002
00000000
00001003
00000000
00000100
00000010
00000001
00000000
,  // measure 18
00000100
00000010
00001000
00000001
,  // measure 19
00001000
00000100
00010000
00001000
,  // measure 20
00010000
01010000
11000000
00000000
,  // measure 21
20000000
00000000
31000000
00000000
00100000
00010000
01000000
00000000
,  // measure 22
00100000
01000000
00010000
00100000
,  // measure 23
01000000
10000000
01000000
00100000
,  // measure 24
00010000
00001000
00001100
00001001
,  // measure 25
00001000
00000010
00001000
00000000
00000001
00000100
00000001
00000000
,  // measure 26
00001000
00001000
00000001
00000001
,  // measure 27
00000010
00000100
00000010
00000000
00000100
00000010
00000100
00000000
,  // measure 28
00000220
00000000
00000000
00000330
,  // measure 29
00000001
00000000
00001000
00000000
00000010
00001000
00000100
00000000
,  // measure 30
00010000
00000000
00001000
00000000
00010000
00001000
00010000
00000000
,  // measure 31
01000000
00000000
00010000
00000000
00100000
01000000
10000000
00000000
,  // measure 32
20020000
00000000
00000000
30030000
,  // measure 33
20000000
30100000
00020000
00130000
,  // measure 34
20000000
31000000
00020000
01030000
,  // measure 35
00200000
00301000
00002000
00013000
,  // measure 36
00020000
00030100
00000200
00001300
,  // measure 37
00002000
00003010
00000002
00000013
,  // measure 38
00002000
00003100
00000002
00000103
,  // measure 39
00002000
00003100
00020000
00031000
,  // measure 40
00002000
00010000
00020000
00033000
,  // measure 41
00020000
00000000
01030000
00000000
10000000
00100000
10000000
00000000
,  // measure 42
01000000
00100000
00010000
01000000
,  // measure 43
00100000
10000000
00010000
10000000
,  // measure 44
01000000
00110000
00110000
00000000
,  // measure 45
00020000
00000000
00130000
00000000
00001000
00010000
00000100
00000000
,  // measure 46
00001000
00000000
00000010
00000000
00000100
00000001
00000010
00000000
,  // measure 47
00000100
00001000
00000001
00001000
,  // measure 48
00000001
00001001
00000110
00000000
,  // measure 49
00000002
00000010
00000100
00001003
,  // measure 50
00002000
00000100
00000010
00003001
,  // measure 51
00000100
00001000
00010000
01000000
,  // measure 52
10000000
00100000
00010000
00100000
,  // measure 53
20000000
01000000
00100000
30010000
,  // measure 54
00020000
01000000
00100000
10030000
,  // measure 55
10000000
01000000
00100000
00010000
,  // measure 56
00001000
00000100
00000001
00000100
,  // measure 57
00000020
00000000
00000130
00000000
00000001
00001000
00000001
00000000
,  // measure 58
00001000
00000100
00000001
00000100
,  // measure 59
00001000
00000100
00010000
00001000
,  // measure 60
00010000
01010000
11000000
00100000
,  // measure 61
00020000
00000000
00130000
00000000
01000000
10000000
00100000
00000000
,  // measure 62
01000000
00010000
00100000
01000000
,  // measure 63
00100000
00010000
00001000
00000100
,  // measure 64
00000001
00001100
00000101
00000000
,  // measure 65
00002002
00000000
00000000
00000000
,  // measure 66
00000000
00000000
00000000
00000000
,  // measure 67
00000000
00000000
00000000
00000000
,  // measure 68
00003003
00000000
00000000
00000000
;

//---------------dance-double - Chewi----------------
#NOTES:
     dance-double:
     Chewi:
     Hard:
     10:
     0.567,0.612,0.355,0.172,0.000:
00000000
00000000
00000000
00000000
,
00000000
00000000
00000000
00000000
,
00000000
00000000
00000000
00000000
,
00000000
00000000
00000000
00000000
,
00000000
10000000
00000000
00010000
10000000
00000000
00100000
01000000
,
00100000
00000000
00000000
01000000
00010000
00000000
00100000
00001000
,
00100000
00000000
00001000
00010000
00000100
00000000
00001000
00000000
,
00001001
00001001
00001001
00000000
,
00000002
00000000
00000103
00000010
00001000
00000001
00000100
00000010
,
00001000
00000000
00000100
00001000
00000100
00000000
00010000
00001000
,
00010000
00000000
00000000
00001000
00010000
00000000
01000000
00000000
,
01100000
10010000
10010000
00000000
,
00000000
10000000
00000000
01000000
00100000
00000000
00010000
00100000
,
01000000
10000000
00000000
00100000
01000000
00000000
00010000
00100000
,
00001000
00000000
00010000
00000100
00001000
00000001
00000100
00000000
,
00000110
00000110
00000110
00000000
,
00000020
00000000
00001030
00000001
00000010
00000100
00001000
00000010
,
00001000
00000000
00000001
00001000
00000100
00000000
00010000
00001000
,
00100000
00000000
00000000
00010000
00010000
00000000
00100000
00000000
,
01100000
00110000
01010000
00000000
,
00000000
01000000
00010000
00100000
00001000
00000000
00010000
00001000
,
00010000
00000100
00000000
00000100
00001000
00000001
00000100
00000010
,
00001000
00000001
00000010
00000000
00000001
00001000
00000010
00000000
,
00001010
00000101
00001001
00000000
,
00000001
00001000
00000001
00000000
00001000
00000001
00001000
00000000
,
00000010
00001000
00000010
00000000
00001000
00000100
00001000
00000000
,
00000100
00010000
00000100
00000000
00010000
00001000
00010000
00000000
,
00022000
00000000
00000000
00033000
,
00001000
00010000
00001000
00000000
00010000
01000000
00010000
00000000
,
01000000
00100000
01000000
00000000
00010000
00100000
00010000
00000000
,
00100000
00001000
00100000
00000000
00001000
00010000
00001000
00000000
,
00022000
00000000
00000000
00033000
,
00002000
00000000
00003010
00000010
00000100
00000001
00000010
00000100
,
00001000
00000000
00000001
00001000
00000010
00000000
00000100
00000001
,
00000200
00000000
00000310
00001000
00000001
00000010
00000100
00001000
,
00000010
00000000
00001000
00000100
00010000
00000000
00001000
00100000
,
00020000
00000000
01030000
00100000
01000000
00010000
00100000
01000000
,
20000000
00000000
30100000
10000000
00010000
00100000
01000000
10000000
,
00200000
00000000
01300000
00010000
00200000
00000000
01300000
10000000
,
01100000
01010000
00110000
00000000
,
00200000
00000000
00310000
00100000
01000000
10000000
00100000
01000000
,
00010000
00000000
00100000
00001000
00010000
00000000
00001000
00000010
,
00000001
00000000
00000000
00000001
00000100
00001000
00000100
00000000
,
00001001
00001010
00001001
00000000
,
00000000
00000001
00000000
00000100
00000010
00000000
00001000
00000100
,
00010000
00001000
00000000
00000010
00001000
00000000
00001000
00010000
,
01000000
00000000
10000000
00100000
10000000
00000000
00010000
00000000
,
00110000
10100000
00110000
00000000
,
10000000
00010000
10000000
00000000
00100000
01000000
00100000
00000000
,
01000000
00010000
00100000
00000000
01000000
10000000
00100000
00000000
,
01000000
00100000
00010000
00000000
00010000
01000000
00100000
00010000
,
00100000
00001000
00010000
00000100
00001000
00000001
00000010
00000000
,
00000010
00000100
00001000
00000000
00000010
00000100
00000001
00000000
,
00000100
00000010
00001000
00000000
00000001
00001000
00000100
00000000
,
00000001
00000010
00000100
00001000
00010000
01000000
10000000
00100000
,
10000000
01000000
00100000
00010000
00100000
00000000
00000000
00000000
,
20000000
00000000
31000000
00100000
00010000
10000000
00100000
01000000
,
00010000
00000000
00100000
01000000
00100000
00000000
00001000
00010000
,
00000100
00001000
00000000
00000010
00001000
00000000
00000001
00000000
,
00000101
00001001
00001010
00000000
,
00000000
00000010
00000000
00001000
00000100
00000000
00001000
00000010
,
00000100
00001000
00000000
00010000
00001000
00000000
00001000
00010000
,
01000000
00000000
10000000
01000000
00100000
00010000
00100000
00000000
,
11000000
01010000
10100000
00000000
,
20020000
00000000
00000000
00000000
,
00000000
00000000
00000000
00000000
,
00000000
00000000
00000000
00000000
,
30030000
00000000
00000000
00000000
;
