#TITLE:恋する☆宇宙戦争っ!!;
#SUBTITLE:;
#ARTIST:Prim;
#TITLETRANSLIT:KOISURU UCHUU SENSOU!!;
#SUBTITLETRANSLIT:;
#ARTISTTRANSLIT:;
#GENRE:;
#CREDIT:Chewi☆;
#MENUCOLOR:;
#METERTYPE:DDR X;
#BANNER:KOISURU UCHUU SENSOU!!.png;
#BACKGROUND:KOISURU UCHUU SENSOU!!-bg.png;
#LYRICSPATH:;
#CDTITLE:;
#MUSIC:KOISURU UCHUU SENSOU!!.mp3;
#OFFSET:-1.590;
#SAMPLESTART:49.600;
#SAMPLELENGTH:15.000;
#SELECTABLE:YES;
#LISTSORT:;
#BPMS:0.000=200.000;
#STOPS:;
#BGCHANGES:;
#ATTACKS:;

//---------------dance-single - Chewi----------------
#NOTES:
     dance-single:
     Chewi:
     Hard:
     13:
     0.762,0.850,0.374,0.199,0.040:
0000
0000
0000
0000
,
0000
0000
0000
0000
,
0000
0000
0000
0000
,
0000
0000
0000
0000
,
1000
0010
1000
0100
1000
0000
1010
0000
,
1000
0001
0010
0001
1000
0000
1001
0000
,
0202
0000
0303
0202
0000
0303
0000
0000
,
0110
0100
0000
0220
0000
0330
0000
0000
,
0010
1000
0100
1000
0010
0000
1010
0000
,
1000
0100
0010
0001
0010
0001
0010
0000
,
0001
0010
0100
1000
0010
0000
1010
0000
,
1000
0100
0010
0100
1000
0010
0100
0000
,
0101
0000
0100
0010
1000
0001
0010
0000
,
0110
0000
0100
0010
0001
1000
0010
0000
,
2020
0000
3030
2020
0000
3030
0202
0000
,
0303
0202
0000
0303
1001
0000
1001
0000
,
1000
0100
0010
0000
0001
0010
0100
0000
,
1000
0001
0100
0010
1000
0001
0010
0000
,
0100
0010
0001
0000
0010
0100
1000
0000
,
0001
0100
0010
0100
0001
1000
0010
0000
,
1000
0100
0010
0000
0100
1000
0010
0000
,
1000
0100
0010
0001
1000
0010
0100
0000
,
0001
0100
0001
0000
1000
0100
1000
0000
,
0001
1000
0010
0100
0001
1000
0100
0000
,
0010
0100
0100
0000
1000
0010
0100
0000
,
0001
0100
0010
0100
0001
0000
0101
0000
,
0001
0010
0010
0000
0100
1000
0010
0000
,
1000
0100
0010
0001
0010
0000
0011
0000
,
0001
1000
0100
0000
1000
0001
0100
0000
,
0010
0100
0001
0100
0010
0100
0001
0000
,
0010
0100
1000
0000
0010
1000
0010
0000
,
1000
0010
0100
0010
1000
0100
0010
0000
,
0011
0000
0000
0010
1001
0000
0000
1100
,
0000
0101
0000
1100
1000
0000
0000
0000
,
1001
0000
0000
0100
0101
0000
0000
0110
,
0000
0110
0000
1010
1000
0000
1001
0000
,
1000
0100
0001
0000
0010
0000
1000
0000
,
0100
1000
0010
0001
0100
1000
0010
0000
,
1010
0011
1010
1100
,
0101
1000
0100
0000
1100
0001
0100
0000
,
0010
0100
0001
0100
0000
0010
1000
0100
,
0010
0001
0100
0010
0000
1000
0100
1000
,
0100
1000
0010
1000
0100
1000
0010
0100
,
0001
0100
0010
0100
0000
0100
0010
1000
,
0001
0010
0100
1000
0000
1000
0100
1000
,
0100
1000
0010
1000
0000
0000
0000
0000
,
1000
0100
0001
0100
1000
0100
0001
0100
,
1000
0010
0001
0010
1000
0010
0010
0000
,
1000
0010
0100
0010
0000
1000
0100
0010
,
0001
0010
0100
0010
0000
0001
0100
0010
,
0100
0010
1000
0001
0010
0100
1000
0000
,
0001
1000
0010
0100
0000
0000
0000
0000
,
1000
0100
0001
0100
1000
0100
0001
0000
,
0001
0010
1000
0010
0001
0010
1000
0000
,
1000
0010
0100
0000
0001
0010
0100
0000
,
1000
0001
1000
0001
0100
0100
0100
0100
,
0010
1000
0010
0000
0100
0001
0100
0000
,
0001
0010
0100
1000
0010
1000
1100
0000
,
1000
0010
1000
0000
0010
0100
0010
0000
,
0100
0001
0010
0100
1000
0010
1010
0000
,
0100
1000
0100
0000
1000
0010
1000
0000
,
0010
0100
0001
0010
0100
1000
1001
0000
,
1000
0000
0000
0000
1000
0001
1000
0000
0000
0000
0001
0010
0001
0000
0000
0000
,
1000
0100
1000
0000
0000
0000
1000
0001
1000
0000
0001
1000
0001
0000
0000
0000
,
2000
0000
3002
0000
0023
0000
0031
0010
,
0000
0100
1000
0010
1000
0000
1100
0000
,
2000
0000
3020
0000
0230
0000
0301
0010
,
0000
0011
0000
0010
0001
0100
0010
1000
,
0200
0000
2300
0000
3020
0000
1030
0010
,
0000
0010
1000
0100
0010
0000
0011
0000
,
1000
0100
0010
0000
0001
0010
0100
0000
,
1000
0001
1000
0001
0100
0010
0100
0010
,
1000
1100
0001
0101
,
1000
0001
0010
0000
0001
1000
0010
0000
,
0001
0010
0100
1000
0001
0010
0100
1000
,
1000
0010
0100
0001
1000
0010
0100
0001
,
0100
0010
1000
0010
0000
0100
0001
0010
,
0100
1000
0010
0100
0000
0001
0010
0001
,
0010
0001
0100
0001
0010
0001
0100
0010
,
1000
0010
0100
0010
0000
0010
0100
0001
,
1000
0100
0010
0001
0000
0001
0010
0001
,
0010
0001
0100
0001
0000
0000
0000
0000
,
0001
0010
1000
0010
0001
0010
1000
0010
,
0001
0100
1000
0100
0001
0100
0100
0000
,
0001
0100
0010
0100
0000
0001
0010
0100
,
1000
0100
0010
0100
0000
1000
0010
0100
,
0010
0100
0001
1000
0100
0010
0001
0000
,
1000
0001
0100
0010
0000
0000
0000
0000
,
0001
0010
1000
0010
0001
0010
1000
0000
,
1000
0100
0001
0100
1000
0100
0001
0000
,
0001
0100
0010
0000
1000
0100
0010
0000
,
0001
1000
0001
1000
0010
0010
0010
0010
,
0100
0001
0100
0000
0010
1000
0010
0000
,
1000
0100
0010
0001
0100
0001
0011
0000
,
0001
0100
0001
0000
0100
0010
0100
0000
,
0010
1000
0100
0010
0001
0100
0101
0000
,
0010
0001
0010
0000
0001
0100
0001
0000
,
0100
0010
1000
0100
0010
0001
1001
0000
,
0001
0000
0000
0000
0001
1000
0001
0000
0000
0000
1000
0100
1000
0000
0000
0000
,
0001
0010
0001
0000
0000
0000
0001
1000
0001
0000
1000
0001
1000
0000
0000
0000
,
2002
0000
0000
0000
,
0000
0000
0000
3003
;

//---------------dance-single - Chewi----------------
#NOTES:
     dance-single:
     Chewi:
     Medium:
     9:
     0.495,0.688,0.366,0.016,0.000:
0000
0000
0000
0000
,
0000
0000
0000
0000
,
0000
0000
0000
0000
,
0000
0000
0000
0000
,
1000
0100
1000
1100
,
0001
0100
0001
0100
,
0101
0000
0000
0101
0000
0000
0000
0000
,
0110
0000
0000
0110
0000
0000
0000
0000
,
0010
1000
0010
1000
,
0001
1000
0001
1000
,
0100
0010
0100
0010
,
0001
1000
0001
1000
,
0010
1000
0100
1000
,
0010
0100
0001
0010
,
0011
0000
0000
0011
0000
0000
1100
0000
,
0000
1100
0000
0000
1001
0000
1001
0000
,
1000
0000
0001
0000
1000
0001
1000
0000
,
0001
0100
0010
0000
,
1000
0000
0001
0000
1000
0001
1000
0000
,
1000
0100
0010
0000
,
0001
0000
0010
0000
0100
0010
0001
0000
,
0100
0010
0100
0000
,
0001
0000
0100
0000
0010
1000
0100
0000
,
1000
0010
0100
0000
,
0010
0000
0100
0000
0001
1000
0100
0000
,
0010
0100
1000
0000
,
1000
0000
0010
0000
0100
0001
0010
0000
,
0100
0010
0001
0000
,
0001
0000
0010
0000
0100
1000
0001
0000
,
1000
0010
0100
0000
,
0001
0000
0100
0000
0010
1000
0001
0000
,
1000
0010
0100
0000
,
0101
0000
0100
0000
,
0100
0000
0010
1000
0001
0000
0000
0000
,
1100
0000
0100
0000
,
0100
0000
0010
0001
0010
0000
0000
0000
,
1001
1000
0001
0001
,
1000
0100
1000
0000
0001
0100
0001
0000
,
0100
0010
0100
0010
,
1000
0001
1000
0001
,
1000
0100
0010
0001
,
1000
0100
0010
0001
,
1000
0100
1000
0000
0001
0100
0001
0000
,
1000
1100
0001
0101
,
1000
0010
0100
0001
,
1000
0010
0100
0001
,
0010
0001
0010
0000
1000
0100
1000
0000
,
1100
1000
1001
0001
,
0001
0100
0010
1000
,
0001
0010
0100
1000
,
0001
1000
0001
0000
1000
0001
1000
0000
,
1000
1100
0001
0101
,
0100
0010
1000
0001
,
0010
0100
1000
0001
,
1000
0100
1000
0000
0001
0010
0001
0000
,
0011
1000
1100
1000
,
0001
1000
0010
0100
,
0001
1000
0100
0010
,
0001
0010
0100
1000
,
0001
1000
0100
1000
,
1001
1000
0010
0100
,
0101
0100
0010
1000
,
1001
1000
0100
0010
,
0011
0100
1000
1000
,
0001
0000
1000
0000
0001
0000
0000
1000
,
0000
0001
0000
1000
0001
0000
0000
0000
,
0001
0000
1000
0000
0001
0000
0000
1000
,
0000
0001
0000
1000
0001
0000
0000
0000
,
0100
0000
0010
0000
0100
0000
0000
0010
,
0000
0100
0000
0010
0100
0000
0000
0000
,
0100
0010
1000
0100
,
0010
0001
0010
0100
,
1000
0100
1000
0000
0001
0000
0010
0000
,
0001
0010
0001
0000
0010
0000
0100
0000
,
1001
1001
1001
1001
,
0101
0101
0101
0101
,
0100
0010
1000
0001
,
1000
0100
0010
0001
,
0010
0001
0010
0000
1000
0100
1000
0000
,
1100
0101
1100
0000
,
1000
0001
0100
0010
,
1000
0001
0100
0010
,
1000
0010
1000
0000
0001
0100
0001
0000
,
1100
0101
1100
0000
,
1001
0100
0010
1000
,
0001
0010
0100
1000
,
0010
1000
0100
0000
1000
0100
1000
0000
,
1100
0011
0101
0000
,
0101
0100
0010
0100
,
0001
0010
0100
1000
,
0010
1000
0010
0000
0100
0001
0100
0000
,
0010
0010
0100
0100
,
1000
0100
0010
0100
,
1000
0010
0001
0100
,
1000
0010
0100
0010
,
1000
0100
0001
0010
,
1000
0100
0010
0100
,
1000
0001
0100
0010
,
0001
0000
0000
0001
0000
0000
0001
0000
,
0000
0100
0000
0000
0100
0000
0100
0000
,
0220
0000
0000
0000
,
0000
0000
0000
0330
;

//---------------dance-single - Chewi----------------
#NOTES:
     dance-single:
     Chewi:
     Beginner:
     4:
     0.243,0.364,0.183,0.032,0.000:
0000
0000
0000
0000
,
0000
0000
0000
0000
,
0000
0000
0000
0000
,
0000
0000
0000
0000
,
1000
0000
1000
0000
,
0001
0000
0001
0000
,
1001
0000
0000
0000
,
0110
0000
0000
0000
,
0010
0000
0010
0000
,
0001
0000
0001
0000
,
0100
0000
0100
0000
,
0001
0000
0001
0000
,
0010
0000
0100
0000
,
0010
0000
0001
0000
,
1001
0000
0000
0000
,
1001
0000
0000
0000
,
1000
0000
1000
0000
,
0001
0000
0001
0000
,
1000
0000
1000
0000
,
1000
0000
0010
0000
,
0001
0000
0100
0000
,
0100
0000
0100
0000
,
0001
0000
0010
0000
,
1000
0000
0100
0000
,
0010
0000
0001
0000
,
0010
0000
1000
0000
,
1000
0000
0100
0000
,
0100
0000
0001
0000
,
0001
0000
0100
0000
,
1000
0000
0100
0000
,
0001
0000
0010
0000
,
1000
0000
0100
0000
,
0110
0000
0100
0000
,
0100
0000
1000
0000
,
1001
0000
0100
0000
,
0100
0000
0010
0000
,
1001
0000
0001
0000
,
1000
0000
0001
0000
,
0100
0000
0100
0000
,
1000
0000
1000
0000
,
1000
0000
0010
0000
,
1000
0000
0010
0000
,
1000
0000
0001
0000
,
1000
0000
0001
0000
,
1000
0000
0100
0000
,
1000
0000
0100
0000
,
0010
0000
1000
0000
,
0110
0000
0001
0000
,
0001
0000
0010
0000
,
0001
0000
0100
0000
,
0001
0000
1000
0000
,
1000
0000
0001
0000
,
0100
0000
1000
0000
,
0010
0000
1000
0000
,
1000
0000
0001
0000
,
1001
0000
0100
0000
,
0001
0000
0010
0000
,
0001
0000
0100
0000
,
0001
0000
0100
0000
,
0001
0000
0100
0000
,
1001
0000
0010
0000
,
0110
0000
0010
0000
,
1001
0000
0100
0000
,
0110
0000
1000
0000
,
0001
0000
0001
0000
,
1000
0000
1000
0000
,
0001
0000
0001
0000
,
1000
0000
1000
0000
,
0100
0000
0100
0000
,
0010
0000
0010
0000
,
0100
0000
1000
0000
,
0010
0000
0010
0000
,
1000
0000
0001
0000
,
0001
0000
0010
0000
,
1001
0000
1001
0000
,
0110
0000
0110
0000
,
0100
0000
1000
0000
,
1000
0000
0010
0000
,
0010
0000
1000
0000
,
1001
0000
0100
0000
,
1000
0000
0100
0000
,
1000
0000
0100
0000
,
1000
0000
0001
0000
,
0110
0000
0100
0000
,
1001
0000
0010
0000
,
0001
0000
0100
0000
,
0010
0000
1000
0000
,
0110
0000
0100
0000
,
1001
0000
0010
0000
,
0001
0000
0100
0000
,
0010
0000
0100
0000
,
0010
0000
0100
0000
,
1000
0000
0010
0000
,
1000
0000
0001
0000
,
1000
0000
0100
0000
,
1000
0000
0001
0000
,
1000
0000
0010
0000
,
1000
0000
0100
0000
,
0002
0000
0000
0003
,
2000
0000
0000
3000
,
2002
0000
0000
0000
,
0000
0000
0000
3003
;

//---------------dance-single - Chewi----------------
#NOTES:
     dance-single:
     Chewi:
     Easy:
     7:
     0.393,0.688,0.263,0.032,0.000: // measure 1
0000
0000
0000
0000
,  // measure 2
0000
0000
0000
0000
,  // measure 3
0000
0000
0000
0000
,  // measure 4
0000
0000
0000
0000
,  // measure 5
1000
0100
1000
0000
,  // measure 6
0001
0100
0001
0000
,  // measure 7
1001
0000
0000
0000
,  // measure 8
0110
0000
0000
0000
,  // measure 9
0010
1000
0010
0000
,  // measure 10
0001
1000
0001
0000
,  // measure 11
0100
0010
0100
0000
,  // measure 12
0001
1000
0001
0000
,  // measure 13
0010
1000
0100
0000
,  // measure 14
0010
0100
0001
0000
,  // measure 15
0011
0000
0000
1100
,  // measure 16
0000
0000
0000
0000
,  // measure 17
1000
0001
1000
1000
,  // measure 18
0001
0100
0010
0000
,  // measure 19
1000
0001
1000
1000
,  // measure 20
1000
0100
0010
0000
,  // measure 21
0001
0010
0100
0001
,  // measure 22
0100
0010
0100
0000
,  // measure 23
0001
0100
0010
0100
,  // measure 24
1000
0010
0100
0000
,  // measure 25
0010
0100
0001
0100
,  // measure 26
0010
0100
1000
0000
,  // measure 27
1000
0010
0100
0010
,  // measure 28
0100
0010
0001
0000
,  // measure 29
0001
0010
0100
0001
,  // measure 30
1000
0010
0100
0000
,  // measure 31
0001
0100
0010
0001
,  // measure 32
1000
0010
0100
0000
,  // measure 33
0101
0000
0100
0000
,  // measure 34
0100
0010
0001
0000
,  // measure 35
1100
0000
0100
0000
,  // measure 36
0100
0010
0010
0000
,  // measure 37
1001
1000
0001
0001
,  // measure 38
1000
1000
0001
0001
,  // measure 39
0100
0010
0100
0000
,  // measure 40
1000
0001
1000
0000
,  // measure 41
1000
0100
0010
0000
,  // measure 42
1000
0100
0010
0000
,  // measure 43
1000
1000
0001
0001
,  // measure 44
1000
1100
0001
0101
,  // measure 45
1000
0010
0100
0000
,  // measure 46
1000
0010
0100
0000
,  // measure 47
0010
0010
1000
1000
,  // measure 48
1100
1000
1001
0001
,  // measure 49
0001
0100
0010
0000
,  // measure 50
0001
0010
0100
0000
,  // measure 51
0001
0001
1000
1000
,  // measure 52
1000
1100
0001
0101
,  // measure 53
0100
0010
1000
0000
,  // measure 54
0010
0100
1000
0000
,  // measure 55
1000
1000
0001
0001
,  // measure 56
0011
1000
1100
1000
,  // measure 57
0001
1000
0010
0000
,  // measure 58
0001
1000
0100
0000
,  // measure 59
0001
0010
0100
0000
,  // measure 60
0001
1000
0100
0000
,  // measure 61
1001
1000
0010
0100
,  // measure 62
0101
0100
0010
1000
,  // measure 63
1001
1000
0100
0010
,  // measure 64
0011
0100
1000
1000
,  // measure 65
0001
1000
0001
0000
,  // measure 66
1000
0001
1000
0000
,  // measure 67
0001
1000
0001
0000
,  // measure 68
1000
0001
1000
0000
,  // measure 69
0100
0010
0100
0000
,  // measure 70
0010
0100
0010
0100
,  // measure 71
0100
0010
1000
0100
,  // measure 72
0010
0001
0010
0100
,  // measure 73
1000
1000
0001
0010
,  // measure 74
0001
0001
0010
0100
,  // measure 75
1001
1001
1001
1001
,  // measure 76
0110
0110
0110
0110
,  // measure 77
0100
0010
1000
0000
,  // measure 78
1000
0100
0010
0000
,  // measure 79
0010
0010
1000
1000
,  // measure 80
1100
0100
0100
0000
,  // measure 81
1000
0001
0100
0000
,  // measure 82
1000
0001
0100
0000
,  // measure 83
1000
1000
0001
0001
,  // measure 84
0101
0100
0100
0000
,  // measure 85
1001
0100
0010
0000
,  // measure 86
0001
0010
0100
0000
,  // measure 87
0010
0100
1000
1000
,  // measure 88
1100
0100
0100
0000
,  // measure 89
0101
0100
0010
0000
,  // measure 90
0001
0010
0100
0000
,  // measure 91
0010
0010
0100
0100
,  // measure 92
0010
0010
0100
0100
,  // measure 93
1000
0100
0010
0000
,  // measure 94
1000
0010
0001
0000
,  // measure 95
1000
0010
0100
0000
,  // measure 96
1000
0100
0001
0000
,  // measure 97
1000
0100
0010
0000
,  // measure 98
1000
0001
0100
0000
,  // measure 99
0002
0000
0000
0003
,  // measure 100
2000
0000
0000
3000
,  // measure 101
2002
0000
0000
0000
,  // measure 102
0000
0000
0000
3003
;
