#TITLE:恋のダイヤル6700;
#SUBTITLE:;
#ARTIST:Dream5;
#TITLETRANSLIT:KOI NO DIAL 6700;
#SUBTITLETRANSLIT:;
#ARTISTTRANSLIT:;
#GENRE:;
#CREDIT:Chewi☆;
#MENUCOLOR:;
#METERTYPE:DDR X;
#BANNER:KOI NO DIAL 6700.png;
#BACKGROUND:KOI NO DIAL 6700-bg.png;
#LYRICSPATH:;
#CDTITLE:;
#MUSIC:KOI NO DIAL 6700.mp3;
#OFFSET:-0.525;
#SAMPLESTART:47.110;
#SAMPLELENGTH:15.000;
#SELECTABLE:YES;
#LISTSORT:;
#BPMS:0.000=170.000;
#STOPS:;
#BGCHANGES:;
#ATTACKS:;

//---------------dance-single - Chewi----------------
#NOTES:
     dance-single:
     Chewi:
     Hard:
     10:
     0.517,0.613,0.462,0.021,0.000: // measure 1
0000
0000
0000
0000
,  // measure 2
0000
0000
0000
0000
,  // measure 3
0000
0000
0000
0000
,  // measure 4
0000
0000
0000
0000
,  // measure 5
1000
0000
0100
0000
0010
0001
0000
0010
,  // measure 6
0000
0100
0000
1000
0010
0000
0100
0000
,  // measure 7
0010
0000
0100
0000
0001
1000
0000
0100
,  // measure 8
0000
0010
0001
0010
0001
0000
0000
0000
,  // measure 9
0001
0000
0010
0000
0100
1000
0000
0010
,  // measure 10
0000
1000
0000
0100
0010
0000
0100
0000
,  // measure 11
1000
0000
0001
0000
0100
0010
0000
0100
,  // measure 12
0000
0001
0100
0001
0100
0000
0000
0000
,  // measure 13
0010
0000
1000
0000
0001
0010
0000
0100
,  // measure 14
0000
0010
0000
0001
0010
0000
0100
0000
,  // measure 15
1000
0000
0010
0000
1000
0100
0000
0010
,  // measure 16
0000
0100
1000
0100
1000
0000
1001
0000
,  // measure 17
1100
0000
1001
0000
1000
0100
0010
0001
,  // measure 18
0011
0000
1001
0000
0001
0100
0010
0100
,  // measure 19
0101
0000
0011
0000
0001
0010
0100
1000
,  // measure 20
1100
0000
1100
0000
1000
0100
0010
0001
,  // measure 21
1000
0100
0010
0001
0010
0001
1000
0100
,  // measure 22
1000
0000
1100
0000
0101
0000
0001
0100
,  // measure 23
0010
1000
0001
0100
0010
1000
0001
0010
,  // measure 24
0100
0000
0110
0000
1001
0000
0100
0010
,  // measure 25
0100
0001
0010
0100
1000
0010
1000
0100
,  // measure 26
0010
0000
0011
0000
1100
0000
1000
0100
,  // measure 27
0010
0100
1000
0010
0100
0001
0100
0010
,  // measure 28
0100
0000
0101
0000
0101
0000
0100
0010
,  // measure 29
1000
0000
0100
0000
0001
0000
0010
1000
,  // measure 30
0100
0000
0010
0000
0001
0010
0000
0000
,  // measure 31
0011
0000
0000
0000
,  // measure 32
1000
1001
0000
0000
0000
0000
0000
0000
,  // measure 33
0220
0000
0000
0330
,  // measure 34
0100
0010
1000
0000
1000
0100
0010
0000
,  // measure 35
0011
0000
0000
0011
0000
0000
0000
0000
,  // measure 36
0001
0010
0100
0000
1000
0010
0100
0000
,  // measure 37
0110
0000
0000
0110
0000
0000
0000
0000
,  // measure 38
0100
0010
0100
0000
0001
0010
0100
0000
,  // measure 39
1000
0100
1000
0000
0100
0010
0100
1000
,  // measure 40
0010
0000
0001
0000
0100
1000
0010
0000
,  // measure 41
1000
0000
0100
0000
0001
0010
1000
0000
,  // measure 42
0100
0010
0001
0000
0010
0100
1000
0000
,  // measure 43
1100
0000
0000
0011
0000
0000
0000
0000
,  // measure 44
1000
0010
0100
0000
0001
0100
0010
0000
,  // measure 45
1010
0000
0000
0101
0000
0000
0000
0000
,  // measure 46
1000
0100
1000
0000
0100
0001
0100
0000
,  // measure 47
0001
0010
0001
0000
0010
1000
0010
1000
,  // measure 48
0100
0000
0010
0000
0100
1000
0001
0000
,  // measure 49
0101
0000
1010
0000
1001
0000
1100
0100
,  // measure 50
0010
0001
0010
0100
1000
0010
0100
0001
,  // measure 51
0100
0000
0101
0000
0101
0000
0001
0010
,  // measure 52
0100
1000
0010
1000
0100
0010
0100
1000
,  // measure 53
0010
0000
1010
0000
1010
0000
1000
0010
,  // measure 54
0100
0001
0010
0100
1000
0001
0100
0010
,  // measure 55
0100
0000
0101
0000
0101
0000
0001
0010
,  // measure 56
0100
1000
0010
1000
0100
0010
0001
0100
,  // measure 57
0010
0000
0110
0000
0110
0000
0100
0010
,  // measure 58
1000
0000
0100
0000
0001
0000
0010
1000
,  // measure 59
0100
0000
0010
0000
0001
0010
0000
0000
,  // measure 60
0011
0000
0000
0000
,  // measure 61
1000
1100
0000
0000
0000
0000
0000
0000
,  // measure 62
0001
0000
0010
0000
1000
0000
0100
0001
,  // measure 63
0010
0000
0100
0000
1000
0100
0000
0000
,  // measure 64
1100
0000
0000
0000
,  // measure 65
1000
0001
0000
0000
0000
0000
0000
0110
;

//---------------dance-single - Chewi----------------
#NOTES:
     dance-single:
     Chewi:
     Medium:
     7:
     0.378,0.408,0.336,0.021,0.000: // measure 1
0000
0000
0000
0000
,  // measure 2
0000
0000
0000
0000
,  // measure 3
0000
0000
0000
0000
,  // measure 4
0000
0000
0000
0000
,  // measure 5
1000
0000
1000
0000
1000
0000
0000
1000
,  // measure 6
0000
1000
0000
1000
0001
0000
0100
0000
,  // measure 7
0010
0000
0010
0000
0010
0000
0000
0010
,  // measure 8
0000
0010
0100
0000
0110
0000
0000
0000
,  // measure 9
0001
0000
0001
0000
0001
0000
0000
1000
,  // measure 10
0000
1000
0000
1000
0100
0000
0010
0000
,  // measure 11
0001
0000
0001
0000
0001
0000
0000
0010
,  // measure 12
0000
0010
0100
0000
0110
0000
0000
0000
,  // measure 13
0100
0000
0010
0000
0001
0000
0000
0100
,  // measure 14
0000
0010
0000
1000
0010
0000
0100
0000
,  // measure 15
0001
0000
1000
0000
0100
0000
0000
0010
,  // measure 16
0000
0100
0010
0000
0110
0000
0000
0000
,  // measure 17
0001
0000
0010
0000
0100
1000
0100
0000
,  // measure 18
1000
0010
0100
0001
,  // measure 19
1000
0000
0100
0000
1000
0100
1000
0000
,  // measure 20
1100
0101
0000
0100
,  // measure 21
0010
0000
1000
0000
0001
0000
1000
0100
,  // measure 22
0010
0011
1100
0000
,  // measure 23
1000
0000
0001
0000
1000
0000
0010
0100
,  // measure 24
0001
0101
0011
0000
,  // measure 25
0001
0000
0010
0000
0100
0000
1000
0010
,  // measure 26
1000
1010
1010
0000
,  // measure 27
1000
0000
0001
0000
0100
0000
0010
0100
,  // measure 28
0001
0101
0101
0000
,  // measure 29
1000
0000
0001
0000
1000
0000
0001
0010
,  // measure 30
0100
0000
1000
0000
0100
1000
0000
0000
,  // measure 31
1100
0000
0000
0000
,  // measure 32
1000
1000
0000
0000
0000
0000
0000
0000
,  // measure 33
2002
0000
0000
3003
,  // measure 34
0001
1000
0010
0100
,  // measure 35
0110
0000
0000
0010
0000
0000
0000
0000
,  // measure 36
0010
0100
0001
1000
,  // measure 37
1100
0000
0000
0100
0000
0000
0000
0000
,  // measure 38
1000
0100
0010
0001
,  // measure 39
1000
0000
0100
0000
1000
0001
1000
0001
,  // measure 40
1000
0000
0000
0000
0001
1000
0001
1000
,  // measure 41
0001
0000
0000
0000
,  // measure 42
0001
0100
0010
1000
,  // measure 43
0010
0000
0000
1010
0000
0000
0000
0000
,  // measure 44
1000
0100
0010
0100
,  // measure 45
1100
0000
0000
0100
0000
0000
0000
0000
,  // measure 46
1000
0100
0001
0010
,  // measure 47
1000
0100
0010
0001
,  // measure 48
0011
0000
0000
0000
1000
0100
1000
0000
,  // measure 49
1100
0000
0000
1000
,  // measure 50
0100
0000
0010
0000
0001
0000
1000
0100
,  // measure 51
1000
1100
0101
0000
,  // measure 52
0001
0000
0100
0000
0010
0000
1000
0001
,  // measure 53
1000
1010
0101
0000
,  // measure 54
1000
0000
0100
0000
0010
0000
0001
0010
,  // measure 55
0001
0011
1100
0000
,  // measure 56
1000
0000
0001
0000
1000
0000
0010
0100
,  // measure 57
0010
0110
0101
0000
,  // measure 58
0001
0000
0001
0000
0001
0000
0001
1000
,  // measure 59
0100
0000
0100
0000
0100
0010
0000
0000
,  // measure 60
0110
0000
0000
0000
,  // measure 61
0010
0010
0000
0000
0000
0000
0000
0000
,  // measure 62
0001
0000
0001
0000
0001
0000
0001
0100
,  // measure 63
0010
0000
0010
0000
0010
1000
0000
0000
,  // measure 64
1010
0000
0000
0000
0000
0000
0000
1000
,  // measure 65
1000
0000
0000
0000
0000
0000
0000
1001
;

//---------------dance-single - Chewi----------------
#NOTES:
     dance-single:
     Chewi:
     Beginner:
     3:
     0.189,0.204,0.147,0.000,0.000: // measure 1
0000
0000
0000
0000
,  // measure 2
0000
0000
0000
0000
,  // measure 3
0000
0000
0000
0000
,  // measure 4
0000
0000
0000
0000
,  // measure 5
1000
0000
1000
0000
,  // measure 6
1000
0000
1000
0000
,  // measure 7
0001
0000
0001
0000
,  // measure 8
0001
0000
0001
0000
,  // measure 9
0000
0100
0000
0100
,  // measure 10
0000
0010
0000
0010
,  // measure 11
0000
1000
0000
1000
,  // measure 12
0000
0001
0000
0001
,  // measure 13
0000
0010
0000
0010
,  // measure 14
0000
0100
0000
0100
,  // measure 15
0000
0010
0000
0010
,  // measure 16
0000
0001
0000
0001
,  // measure 17
1000
0000
1000
0000
,  // measure 18
0001
0000
0001
0000
,  // measure 19
0001
0000
0001
0000
,  // measure 20
1000
0000
0000
0000
,  // measure 21
1000
0000
0001
0000
,  // measure 22
1000
0000
1001
0000
,  // measure 23
0100
0000
0010
0000
,  // measure 24
0100
0000
0110
0000
,  // measure 25
0010
0000
1000
0000
,  // measure 26
0001
0000
1001
0000
,  // measure 27
1000
0000
0001
0000
,  // measure 28
0010
0000
0110
0000
,  // measure 29
0010
0000
0010
0000
,  // measure 30
0100
0000
0100
0000
,  // measure 31
0110
0000
0000
0000
,  // measure 32
1001
0000
0000
0000
,  // measure 33
0000
0000
0000
0000
,  // measure 34
1000
0000
0001
0000
,  // measure 35
1000
0000
1000
0000
,  // measure 36
1000
0000
0001
0000
,  // measure 37
0001
0000
0001
0000
,  // measure 38
0001
0000
0010
0000
,  // measure 39
0001
0000
0100
0000
,  // measure 40
0001
0000
0000
0000
,  // measure 41
0010
0000
0000
0000
,  // measure 42
0001
0000
0100
0000
,  // measure 43
0100
0000
0100
0000
,  // measure 44
0100
0000
0010
0000
,  // measure 45
0001
0000
0001
0000
,  // measure 46
0001
0000
1000
0000
,  // measure 47
0100
0000
0100
0000
,  // measure 48
0001
0000
1000
0000
,  // measure 49
1000
0000
1000
0000
,  // measure 50
0010
0000
0001
0000
,  // measure 51
0010
0000
1001
0000
,  // measure 52
1000
0000
0010
0000
,  // measure 53
0010
0000
0110
0000
,  // measure 54
0001
0000
0010
0000
,  // measure 55
0010
0000
0110
0000
,  // measure 56
0100
0000
1000
0000
,  // measure 57
1000
0000
1001
0000
,  // measure 58
1000
0000
1000
0000
,  // measure 59
0001
0000
0001
0000
,  // measure 60
0110
0000
0000
0000
,  // measure 61
0110
0000
0000
0000
,  // measure 62
0100
0000
0100
0000
,  // measure 63
0010
0000
0010
0000
,  // measure 64
0110
0000
0000
0000
,  // measure 65
1001
0000
0000
0000
0000
0000
0000
1000
;

//---------------dance-single - Chewi----------------
#NOTES:
     dance-single:
     Chewi:
     Easy:
     5:
     0.292,0.340,0.199,0.000,0.000: // measure 1
0000
0000
0000
0000
,  // measure 2
0000
0000
0000
0000
,  // measure 3
0000
0000
0000
0000
,  // measure 4
0000
0000
0000
0000
,  // measure 5
1000
0000
1000
0000
,  // measure 6
1000
1000
1000
0000
,  // measure 7
0001
0000
0001
0000
,  // measure 8
0001
0001
0001
0000
,  // measure 9
0000
0100
0000
0100
,  // measure 10
0000
0010
0000
0010
,  // measure 11
0000
1000
0000
1000
,  // measure 12
0000
0001
0000
0001
,  // measure 13
0000
0010
0000
0010
,  // measure 14
0000
0100
0000
0100
,  // measure 15
0000
0010
0000
0010
,  // measure 16
0000
0001
0000
0001
,  // measure 17
1000
0100
1000
0100
,  // measure 18
0001
0100
0001
0100
,  // measure 19
0001
0010
0001
0010
,  // measure 20
1000
1000
0000
0000
,  // measure 21
1000
1000
0001
0001
,  // measure 22
1000
0001
1001
0000
,  // measure 23
0100
0100
0010
0010
,  // measure 24
0100
0010
0110
0000
,  // measure 25
0010
0010
1000
1000
,  // measure 26
0001
1000
1001
0000
,  // measure 27
1000
1000
0001
0001
,  // measure 28
0010
0001
0011
0000
,  // measure 29
0010
0010
0010
0010
,  // measure 30
0100
0100
0100
0100
,  // measure 31
0110
0000
0000
0000
,  // measure 32
1001
0000
0000
0000
,  // measure 33
0000
0000
0000
0000
,  // measure 34
1000
0100
0001
0100
,  // measure 35
1000
0000
1000
0000
,  // measure 36
1000
0010
0001
0010
,  // measure 37
0001
0000
0001
0000
,  // measure 38
0001
1000
0010
0100
,  // measure 39
0001
1000
0100
0010
,  // measure 40
0001
0000
0010
0010
,  // measure 41
0010
0000
0000
0000
,  // measure 42
0001
0010
0100
1000
,  // measure 43
0100
0000
0100
0000
,  // measure 44
0100
1000
0010
0100
,  // measure 45
0001
0000
0001
0000
,  // measure 46
0001
0001
1000
1000
,  // measure 47
0100
0010
0100
1000
,  // measure 48
0001
0000
1000
0100
,  // measure 49
1000
0000
0000
1000
,  // measure 50
0010
0100
0001
0100
,  // measure 51
0010
1010
1010
0000
,  // measure 52
1000
0100
0010
0001
,  // measure 53
0010
0011
0011
0000
,  // measure 54
0001
1000
0010
0100
,  // measure 55
0010
0110
0110
0000
,  // measure 56
0100
0010
1000
0001
,  // measure 57
1000
1001
1001
0000
,  // measure 58
1000
1000
1000
1000
,  // measure 59
0001
0001
0001
0001
,  // measure 60
0110
0000
0000
0000
,  // measure 61
0110
0000
0000
0000
,  // measure 62
0100
0100
0100
0100
,  // measure 63
0010
0010
0010
0010
,  // measure 64
0011
0000
0000
0000
,  // measure 65
1100
0000
0000
0000
0000
0000
0000
1001
;
