#VERSION:0.83;
#TITLE:KISS OR BITE;
#SUBTITLE:;
#ARTIST:MEG ZOMBIES;
#TITLETRANSLIT:;
#SUBTITLETRANSLIT:;
#ARTISTTRANSLIT:;
#GENRE:;
#ORIGIN:;
#CREDIT:;
#BANNER:KISS OR BITE.png;
#BACKGROUND:KISS OR BITE-bg.png;
#PREVIEWVID:;
#JACKET:KISS OR BITE-jacket.png;
#CDIMAGE:;
#DISCIMAGE:;
#LYRICSPATH:;
#CDTITLE:cdtitle.png;
#MUSIC:KISS OR BITE.ogg;
#OFFSET:-0.143000;
#SAMPLESTART:58.769001;
#SAMPLELENGTH:12.000000;
#SELECTABLE:YES;
#BPMS:0.000=131.000;
#STOPS:;
#DELAYS:;
#WARPS:;
#TIMESIGNATURES:0.000=4=4;
#TICKCOUNTS:0.000=4;
#COMBOS:0.000=1;
#SPEEDS:0.000=1.000=0.000=0;
#SCROLLS:0.000=1.000;
#FAKES:;
#LABELS:0.000=Song Start;
#BGCHANGES:-0.143=KISS OR BITE.avi=1.000=1=0=1===CrossFade==,
99999=-nosongbg-=1.000=0=0=0 // don't automatically add -songbackground-
;
#KEYSOUNDS:;
#ATTACKS:
;

//---------------dance-single - ----------------
#NOTEDATA:;
#CHARTNAME:;
#STEPSTYPE:dance-single;
#DESCRIPTION:;
#CHARTSTYLE:;
#DIFFICULTY:Beginner;
#METER:2;
#RADARVALUES:0.111613,0.184487,0.107026,0.085621,0.000000,73.000000,63.000000,10.000000,8.000000,0.000000,0.000000,0.000000,0.000000,0.000000,0.111613,0.184487,0.107026,0.085621,0.000000,73.000000,63.000000,10.000000,8.000000,0.000000,0.000000,0.000000,0.000000,0.000000;
#CREDIT:chewi;
#NOTES:
// measure 0
0000
0000
0000
0000
,  // measure 1
0000
0000
0000
0000
,  // measure 2
0000
0000
0000
0000
,  // measure 3
0000
0000
0000
0000
,  // measure 4
2000
0000
0000
3000
,  // measure 5
1000
0000
0000
0000
,  // measure 6
0002
0000
0000
0003
,  // measure 7
0001
0000
0000
0000
,  // measure 8
1001
0000
0000
0000
,  // measure 9
1000
0000
0001
0000
,  // measure 10
1000
0000
0000
0000
,  // measure 11
0001
0000
1000
0000
,  // measure 12
0001
0000
0000
0000
,  // measure 13
0010
0000
0000
0000
,  // measure 14
0100
0000
0000
0000
,  // measure 15
1000
0000
0000
0000
,  // measure 16
0000
1000
0000
1000
,  // measure 17
0000
1000
0000
0000
,  // measure 18
0000
0001
0000
0001
,  // measure 19
0000
0001
0000
0000
,  // measure 20
0000
0100
0000
0100
,  // measure 21
0000
0100
0000
0000
,  // measure 22
0000
0010
0000
0010
,  // measure 23
0000
0010
0000
0000
,  // measure 24
2000
0000
0000
3000
,  // measure 25
1000
1000
1000
0000
,  // measure 26
0002
0000
0000
0003
,  // measure 27
0001
0001
0001
0000
,  // measure 28
0200
0000
0000
0300
,  // measure 29
0100
0100
0100
0000
,  // measure 30
0020
0000
0000
0030
,  // measure 31
0010
0010
0010
0000
,  // measure 32
0110
0000
0000
0000
,  // measure 33
0110
0000
0000
0000
,  // measure 34
1001
0000
0000
0000
,  // measure 35
1001
0000
0000
0000
,  // measure 36
0001
0001
0001
0000
,  // measure 37
0000
0000
0000
0000
,  // measure 38
1000
1000
1000
0000
,  // measure 39
0000
0000
0000
0000
,  // measure 40
0110
0000
0000
0000
,  // measure 41
0110
0000
0000
0000
,  // measure 42
1001
0000
0000
0000
,  // measure 43
1001
0000
0000
0000
,  // measure 44
0001
0001
0001
0000
,  // measure 45
0000
0000
0000
0000
,  // measure 46
1000
1000
1000
0000
,  // measure 47
2002
0000
0000
0000
,  // measure 48
0000
0000
0000
0000
,  // measure 49
0000
3003
0000
0000
;

//---------------dance-single - ----------------
#NOTEDATA:;
#CHARTNAME:;
#STEPSTYPE:dance-single;
#DESCRIPTION:;
#CHARTSTYLE:;
#DIFFICULTY:Easy;
#METER:6;
#RADARVALUES:0.221697,0.263552,0.149837,0.085621,0.000000,145.000000,131.000000,14.000000,8.000000,0.000000,0.000000,0.000000,0.000000,0.000000,0.221697,0.263552,0.149837,0.085621,0.000000,145.000000,131.000000,14.000000,8.000000,0.000000,0.000000,0.000000,0.000000,0.000000;
#CREDIT:chewi;
#NOTES:
// measure 0
0000
0000
0000
0000
,  // measure 1
0000
0000
0000
0000
,  // measure 2
0000
0000
0000
0000
,  // measure 3
0000
0000
0000
0000
,  // measure 4
2000
0000
0000
3000
,  // measure 5
0200
0000
0000
0300
,  // measure 6
0020
0000
0000
0030
,  // measure 7
0002
0000
0000
0003
,  // measure 8
1001
0000
0001
0000
,  // measure 9
0001
1000
0001
1000
,  // measure 10
0010
0000
0100
0000
,  // measure 11
0010
0100
0010
0100
,  // measure 12
0001
0000
0010
0000
,  // measure 13
1000
0100
0001
0000
,  // measure 14
0010
0000
1000
0000
,  // measure 15
0100
0001
0010
0000
,  // measure 16
0001
0001
0010
0010
,  // measure 17
0001
0010
0001
0000
,  // measure 18
1000
1000
0010
0010
,  // measure 19
1000
0010
1000
0000
,  // measure 20
0001
0001
1000
1000
,  // measure 21
0001
1000
0001
0000
,  // measure 22
0100
0100
0010
0010
,  // measure 23
0100
0010
0100
0000
,  // measure 24
0010
1000
0010
1000
,  // measure 25
0010
0100
0001
0001
,  // measure 26
0010
0001
0010
0001
,  // measure 27
0010
0100
0110
0000
,  // measure 28
0100
1000
0100
1000
,  // measure 29
0010
1000
0010
0010
,  // measure 30
0100
0010
0100
0010
,  // measure 31
0220
0000
0000
0330
,  // measure 32
0001
1000
0001
1000
,  // measure 33
0001
0010
0100
1000
,  // measure 34
1000
0001
1000
0001
,  // measure 35
0101
0000
1100
0000
,  // measure 36
1000
0001
1000
0001
,  // measure 37
0010
0100
1000
0000
,  // measure 38
1001
0000
0110
0000
,  // measure 39
1001
0000
0110
0000
,  // measure 40
1000
0001
1000
0001
,  // measure 41
1000
0100
0010
0001
,  // measure 42
0001
1000
0001
1000
,  // measure 43
1010
0000
0011
0000
,  // measure 44
0001
1000
0001
1000
,  // measure 45
0100
0010
0001
0000
,  // measure 46
1001
0000
0110
0000
,  // measure 47
2002
0000
0000
0000
,  // measure 48
0000
0000
0000
0000
,  // measure 49
0000
3003
0000
0000
;

//---------------dance-single - ----------------
#NOTEDATA:;
#CHARTNAME:;
#STEPSTYPE:dance-single;
#DESCRIPTION:;
#CHARTSTYLE:;
#DIFFICULTY:Medium;
#METER:9;
#RADARVALUES:0.270624,0.368973,0.139134,0.278268,0.000000,177.000000,164.000000,13.000000,26.000000,0.000000,0.000000,0.000000,0.000000,0.000000,0.270624,0.368973,0.139134,0.278268,0.000000,177.000000,164.000000,13.000000,26.000000,0.000000,0.000000,0.000000,0.000000,0.000000;
#CREDIT:chewi;
#NOTES:
// measure 0
0000
0000
0000
0000
,  // measure 1
0000
0000
0000
0000
,  // measure 2
0000
0000
0000
0000
,  // measure 3
0000
0000
0000
0000
,  // measure 4
2000
0000
0000
3000
,  // measure 5
0020
0000
0000
0030
,  // measure 6
0200
0000
0000
0300
,  // measure 7
0002
0000
0000
0003
,  // measure 8
1001
1000
0001
0001
,  // measure 9
0010
0000
0100
0010
0200
0000
2300
0000
,  // measure 10
3001
0100
1000
0100
,  // measure 11
0001
0000
0010
0100
1000
0000
0001
0000
,  // measure 12
1000
0100
0010
0100
,  // measure 13
1000
0010
0100
0100
,  // measure 14
0001
0010
0100
0010
,  // measure 15
0001
0100
0010
0010
,  // measure 16
0000
0100
0010
0100
,  // measure 17
0010
0000
1000
0001
0000
1001
0000
0000
,  // measure 18
0000
0010
1000
0001
,  // measure 19
0100
0000
0001
0100
0000
0000
0101
0000
,  // measure 20
0000
0100
0010
1000
,  // measure 21
0001
0000
1000
0001
0000
1001
0000
0000
,  // measure 22
0000
0001
0010
0100
,  // measure 23
1000
0000
0100
1000
0000
0100
0000
1000
,  // measure 24
0002
0103
2000
3100
,  // measure 25
0002
0013
2000
3010
,  // measure 26
0020
0130
0200
0310
,  // measure 27
0020
0000
1030
0000
1000
1000
1000
0000
,  // measure 28
2000
3100
0200
0310
,  // measure 29
0020
0031
0002
1003
,  // measure 30
1000
0001
1000
0001
0100
0010
0100
0010
,  // measure 31
0110
0000
0000
0000
,  // measure 32
2010
0100
3001
0000
,  // measure 33
0012
0100
1003
0000
,  // measure 34
0001
1000
0001
0000
1000
0001
1000
0000
,  // measure 35
0010
0100
0010
0000
0100
0010
0100
0000
,  // measure 36
0102
1000
0103
0000
,  // measure 37
2100
0000
0001
0000
3100
0000
0000
0100
,  // measure 38
0100
0000
0000
0010
0010
0000
0000
0100
,  // measure 39
0100
0001
1000
0010
,  // measure 40
0102
0010
1003
0000
,  // measure 41
2100
0010
3001
0000
,  // measure 42
1000
0001
1000
0000
0001
1000
0001
0000
,  // measure 43
0100
0010
0100
0000
0010
0100
0010
0000
,  // measure 44
2010
0001
3010
0000
,  // measure 45
0012
0000
1000
0000
0013
0000
0000
0010
,  // measure 46
0010
0000
0000
0100
0100
0000
0000
0010
,  // measure 47
0020
0000
0000
0000
,  // measure 48
0000
0000
0000
0000
,  // measure 49
0000
0030
0000
0000
;

//---------------dance-single - ----------------
#NOTEDATA:;
#CHARTNAME:;
#STEPSTYPE:dance-single;
#DESCRIPTION:;
#CHARTSTYLE:;
#DIFFICULTY:Hard;
#METER:12;
#RADARVALUES:0.568768,0.658881,0.406700,0.021405,0.256863,372.000000,334.000000,38.000000,2.000000,0.000000,0.000000,0.000000,0.000000,0.000000,0.568768,0.658881,0.406700,0.021405,0.256863,372.000000,334.000000,38.000000,2.000000,0.000000,0.000000,0.000000,0.000000,0.000000;
#CREDIT:chewi;
#NOTES:
// measure 0
0000
0000
0000
0000
,  // measure 1
0000
0000
0000
0000
,  // measure 2
0000
0000
0000
0000
,  // measure 3
0000
0000
0000
0000
,  // measure 4
1100
0000
1010
0000
1100
0000
0000
1001
,  // measure 5
0000
0011
0010
0100
0000
0000
0000
1000
,  // measure 6
1100
1000
0000
0001
0101
0001
0000
1001
,  // measure 7
0100
0010
0100
0000
1000
0000
0010
0000
0100
0000
0100
0000
0001
1000
0001
1000
,  // measure 8
0001
0000
0000
0000
0100
0001
0100
0001
0100
0000
0001
0000
0010
0100
0010
0100
,  // measure 9
0010
0000
1001
0010
1100
0000
0101
0000
,  // measure 10
1001
0000
0000
0000
1000
0010
1000
0010
1000
0000
0000
0000
0010
0100
0010
0100
,  // measure 11
0010
0000
0101
0001
0011
0000
1100
0000
,  // measure 12
0001
0000
1000
0100
1000
0000
0100
0000
0010
0000
0100
1000
0010
0000
0100
0000
,  // measure 13
0001
1000
0110
1000
1001
0001
0101
0100
,  // measure 14
0010
0000
1000
0000
0100
1000
0010
0000
0100
0000
0001
0000
0100
0001
0010
0000
,  // measure 15
0001
1000
0110
0100
0101
0001
1001
1000
,  // measure 16
0100
0000
0000
0000
0010
0000
0000
0001
0000
0000
0000
0000
0011
0000
0000
0000
,  // measure 17
0010
0000
0000
0000
0001
0000
0000
0001
0000
0000
0100
0000
0101
0000
0000
0000
,  // measure 18
0100
0000
0000
0000
0010
0000
0000
0010
0000
0000
1000
0000
1010
0000
0000
0000
,  // measure 19
0010
0000
0000
0000
0100
0000
0000
0100
1000
0100
1000
0100
0001
0100
0001
0000
,  // measure 20
0010
0000
0000
0000
0100
0000
0000
1000
0000
0000
0000
0000
1100
0000
0000
0000
,  // measure 21
0100
0000
0000
0000
1000
0000
0000
1000
0000
0000
0010
0000
1010
0000
0000
0000
,  // measure 22
0010
0000
0000
0000
0100
0000
0000
0100
0000
0000
0001
0000
0101
0000
0000
0000
,  // measure 23
0100
0000
0000
0000
0010
0000
0000
0010
1000
0010
1000
0010
0001
0010
0001
0010
,  // measure 24
1000
0100
0101
0001
0100
0010
1010
1000
,  // measure 25
1000
0001
0100
1000
0010
0100
0001
1000
,  // measure 26
0001
0010
0110
0100
0010
0001
0101
0100
,  // measure 27
0100
0010
1000
0001
0100
1000
0100
0000
,  // measure 28
0001
1000
1100
0100
0010
0001
1001
1000
,  // measure 29
0010
0100
0110
0100
0001
0100
0010
1000
,  // measure 30
0001
0000
0010
0000
0100
0000
1000
0000
0001
1000
0001
1000
0001
1000
0001
1000
,  // measure 31
0001
0000
0000
0000
,  // measure 32
1010
0001
0100
0001
0010
0100
1000
0000
,  // measure 33
0001
1000
0100
0010
0001
1000
0100
0000
,  // measure 34
0010
0001
0010
0000
0001
0000
1000
0000
0001
0100
0001
0000
0100
0000
0010
0000
,  // measure 35
1000
0010
0100
1000
0100
0010
1000
0100
,  // measure 36
1100
1000
0001
0100
0001
1000
0010
0100
,  // measure 37
0001
1000
0100
0010
0001
1000
0100
0010
,  // measure 38
0001
0100
0001
0000
0100
0000
0010
0000
1000
0001
1000
0000
0001
0000
0100
0000
,  // measure 39
0010
0010
0100
0100
0001
0001
1000
1000
,  // measure 40
0101
1000
0010
1000
0100
0010
0001
0001
,  // measure 41
1000
0001
0010
0100
1000
0001
0010
0010
,  // measure 42
0100
1000
0100
0000
1000
0000
0001
0000
1000
0010
1000
0000
0010
0000
0100
0000
,  // measure 43
0001
0100
0010
0001
0010
0100
0001
0010
,  // measure 44
0011
0001
1000
0010
1000
0001
0100
0010
,  // measure 45
1000
0001
0010
0100
1000
0001
0010
0100
,  // measure 46
1000
0010
1000
0010
1000
0001
1000
0001
1000
0100
1000
0100
1000
0010
1000
0020
,  // measure 47
2000
0000
0000
0000
,  // measure 48
0000
0000
0000
0000
,  // measure 49
0000
3030
0000
0000
;
