#TITLE:♡KISS♡ ONE MORE TIME;
#SUBTITLE:;
#ARTIST:Tommy february6;
#TITLETRANSLIT:KISS ONE MORE TIME;
#SUBTITLETRANSLIT:;
#ARTISTTRANSLIT:;
#GENRE:;
#CREDIT:Chewi☆;
#MENUCOLOR:#FFFF00;
#METERTYPE:DDR X;
#BANNER:KISS ONE MORE TIME.png;
#BACKGROUND:KISS ONE MORE TIME-bg.png;
#LYRICSPATH:;
#CDTITLE:;
#MUSIC:KISS ONE MORE TIME.mp3;
#OFFSET:-0.573;
#SAMPLESTART:57.721;
#SAMPLELENGTH:15.000;
#SELECTABLE:YES;
#LISTSORT:;
#DISPLAYBPM:126.000;
#BPMS:0.000=126.000;
#STOPS:;
#BGCHANGES:;
#ATTACKS:;

//---------------dance-single - Chewi----------------
#NOTES:
     dance-single:
     Chewi:
     Beginner:
     1:
     0.064,0.072,0.000,0.042,0.000: // measure 1
0000
0000
0000
0000
,  // measure 2
0000
0000
0000
0000
,  // measure 3
0000
0000
0000
0000
,  // measure 4
0000
0000
0000
0000
,  // measure 5
1000
0000
0000
0000
,  // measure 6
0001
0000
0000
0000
,  // measure 7
0010
0000
0000
0000
,  // measure 8
0100
0000
0000
0000
,  // measure 9
1000
0000
0000
0000
,  // measure 10
0100
0000
0000
0000
,  // measure 11
0001
0000
0000
0000
,  // measure 12
0010
0000
0000
0000
,  // measure 13
0010
0000
0000
0000
,  // measure 14
1000
0000
0000
0000
,  // measure 15
0001
0000
0000
0000
,  // measure 16
1000
0000
0000
0000
,  // measure 17
0002
0000
0000
0000
,  // measure 18
0003
0000
0000
0000
,  // measure 19
2000
0000
0000
0000
,  // measure 20
3000
0000
0000
0000
,  // measure 21
0200
0000
0000
0000
,  // measure 22
0300
0000
0000
0000
,  // measure 23
0020
0000
0000
0000
,  // measure 24
0030
0000
0000
0000
,  // measure 25
1000
0000
0000
0000
,  // measure 26
1000
0000
0000
0000
,  // measure 27
0001
0000
0000
0000
,  // measure 28
0001
0000
0000
0000
,  // measure 29
0010
0000
0000
0000
,  // measure 30
0010
0000
0000
0000
,  // measure 31
0100
0000
0000
0000
,  // measure 32
0100
0000
0000
0000
,  // measure 33
1000
0000
0000
0000
,  // measure 34
0001
0000
0000
0000
,  // measure 35
0100
0000
0000
0000
,  // measure 36
0010
0000
0000
0000
,  // measure 37
0010
0000
0000
0000
,  // measure 38
1000
0000
0000
0000
,  // measure 39
1000
0000
0000
0000
,  // measure 40
0010
0000
0000
0000
,  // measure 41
0001
0000
0000
0000
,  // measure 42
1000
0000
0000
0000
,  // measure 43
0010
0000
0000
0000
,  // measure 44
1000
0000
0000
0000
,  // measure 45
0100
0000
0000
0000
,  // measure 46
0001
0000
0000
0000
;

//---------------dance-single - Chewi----------------
#NOTES:
     dance-single:
     Chewi:
     Easy:
     3:
     0.186,0.194,0.011,0.085,0.000: // measure 1
0000
0000
0000
0000
,  // measure 2
0000
0000
0000
0000
,  // measure 3
0000
0000
0000
0000
,  // measure 4
0000
0000
0000
0000
,  // measure 5
2000
0000
0000
3000
0000
0000
0000
0000
,  // measure 6
0002
0000
0000
0003
0000
0000
1000
0000
,  // measure 7
0020
0000
0000
0030
0000
0000
0000
0000
,  // measure 8
0200
0000
0000
0300
0000
0000
0010
0000
,  // measure 9
1000
1000
1000
0000
,  // measure 10
0100
0010
0100
0000
,  // measure 11
0001
0001
0001
0000
,  // measure 12
0100
0010
0100
0000
,  // measure 13
0010
1000
0010
0000
,  // measure 14
1000
0001
1000
0000
,  // measure 15
0001
0100
0001
0000
,  // measure 16
0001
1000
0001
0000
,  // measure 17
0002
0000
0010
0000
,  // measure 18
1003
1000
1000
0000
,  // measure 19
2000
0000
0010
0000
,  // measure 20
3001
0001
0001
0000
,  // measure 21
0200
0000
0010
0000
,  // measure 22
0301
0001
0001
0000
,  // measure 23
0002
0000
0010
0000
,  // measure 24
1003
1000
1000
0000
,  // measure 25
1000
0100
0001
0010
,  // measure 26
1000
0000
0000
0000
,  // measure 27
1000
0010
0001
0100
,  // measure 28
1000
0000
0000
0000
,  // measure 29
1000
0100
0010
0001
,  // measure 30
0010
0000
0000
0000
,  // measure 31
0001
0001
0001
0000
,  // measure 32
1000
0100
1000
0000
,  // measure 33
1000
1000
1000
0000
,  // measure 34
0001
0100
0001
0000
,  // measure 35
0100
0100
0100
0000
,  // measure 36
0010
0100
0010
0000
,  // measure 37
0010
0010
0010
0000
,  // measure 38
1000
0010
1000
0000
,  // measure 39
1000
1000
0100
0000
,  // measure 40
0010
0001
0100
0000
,  // measure 41
0001
0001
0100
0000
,  // measure 42
1000
0010
1000
0000
,  // measure 43
0010
0010
0100
0000
,  // measure 44
1000
0100
1000
0000
,  // measure 45
0100
0100
1000
0000
,  // measure 46
0001
1000
0001
1001
;

//---------------dance-single - Chewi----------------
#NOTES:
     dance-single:
     Chewi:
     Medium:
     6:
     0.262,0.292,0.074,0.138,0.000: // measure 1
0000
0000
0000
0000
,  // measure 2
0000
0000
0000
0000
,  // measure 3
0000
0000
0000
0000
,  // measure 4
0000
0000
0000
0000
,  // measure 5
2000
0000
0000
3001
0000
0000
0000
0000
,  // measure 6
0002
0000
0000
1003
0000
0000
0100
0000
,  // measure 7
0020
0000
0000
0130
0000
0000
0000
0000
,  // measure 8
0200
0000
0000
0310
0000
0000
0010
0000
,  // measure 9
0001
1000
0001
1000
,  // measure 10
0100
0010
0100
0010
,  // measure 11
0010
0001
0100
0000
,  // measure 12
0010
1000
0100
0000
,  // measure 13
1000
0001
1000
0001
,  // measure 14
0100
0010
0100
0010
,  // measure 15
1000
0010
0100
0000
,  // measure 16
0001
0100
0010
0000
,  // measure 17
1000
0000
1000
0000
1000
1000
1000
0000
,  // measure 18
0001
0000
0001
0000
0001
0001
0001
0000
,  // measure 19
0010
0100
0010
0000
,  // measure 20
0100
0010
0100
0000
,  // measure 21
0100
0000
0100
0000
0100
0100
0100
0000
,  // measure 22
0010
0000
0010
0000
0010
0010
0010
0000
,  // measure 23
0001
0100
0010
0000
,  // measure 24
1000
0010
0100
0000
,  // measure 25
2000
3200
0320
0030
,  // measure 26
0001
0100
0001
0000
0101
0000
0000
0000
,  // measure 27
0002
0203
0320
0030
,  // measure 28
0010
1000
0010
0000
1010
0000
0000
0000
,  // measure 29
2000
3002
0023
0030
,  // measure 30
0100
0010
0100
0000
0110
0000
0000
0000
,  // measure 31
0010
0001
0010
0001
,  // measure 32
0100
0001
0100
0001
,  // measure 33
0100
0010
1000
0000
,  // measure 34
1000
1001
0001
0000
,  // measure 35
1000
0100
1000
0100
,  // measure 36
1000
0010
1000
0010
,  // measure 37
1000
0010
0100
0000
,  // measure 38
0001
0101
0001
0000
,  // measure 39
0001
0000
0001
0000
0001
0000
0001
1000
,  // measure 40
0100
0000
0100
0000
0100
0000
0100
0010
,  // measure 41
0001
0001
0001
0000
,  // measure 42
0100
1001
0010
0000
,  // measure 43
1000
0000
1000
0000
1000
0000
1000
0010
,  // measure 44
0100
0000
0100
0000
0100
0000
0100
0001
,  // measure 45
0010
0010
0010
0000
,  // measure 46
0100
0000
0110
0000
0010
0000
0001
1000
;

//---------------dance-single - Chewi----------------
#NOTES:
     dance-single:
     Chewi:
     Hard:
     10:
     0.370,0.399,0.117,0.223,0.000: // measure 1
0000
0000
0000
0000
,  // measure 2
0000
0000
0000
0000
,  // measure 3
0000
0000
0000
0000
,  // measure 4
0000
0000
0000
0000
,  // measure 5
2000
0000
0000
3200
0000
0000
0000
0000
,  // measure 6
0320
0000
0000
0032
0000
0000
0100
0000
,  // measure 7
0203
0000
0000
0320
0000
0000
0000
0000
,  // measure 8
2030
0000
0000
0001
0000
0000
3001
0000
,  // measure 9
0000
0001
0010
0100
1000
0000
0100
0010
,  // measure 10
0000
0001
0000
0010
0000
0000
0010
1000
,  // measure 11
0000
0000
0100
0001
0000
0000
0000
0010
,  // measure 12
0000
1000
0000
0001
0000
0000
0101
0000
,  // measure 13
0000
0100
0001
0010
1000
0000
1000
0100
,  // measure 14
0000
0010
0000
0001
0000
0000
1000
1000
,  // measure 15
0000
0000
0001
0001
0000
0000
0100
0100
,  // measure 16
0000
0010
0000
1000
0000
0000
0100
0010
,  // measure 17
0100
0000
1000
0000
0010
0001
0100
0000
,  // measure 18
1000
0000
0010
0000
0100
0001
0101
0000
,  // measure 19
0001
0000
0010
0000
1000
0100
0001
0000
,  // measure 20
0010
0000
0001
0000
0010
0001
0011
0000
,  // measure 21
0001
0010
0001
0000
0010
0100
1000
0000
,  // measure 22
1000
0100
1000
0000
1000
0100
0010
0000
,  // measure 23
0001
1000
0010
0000
1000
0001
0010
0000
,  // measure 24
0100
0010
0100
0010
0001
1000
0001
1000
,  // measure 25
0001
0000
0100
0000
0010
1000
0100
0001
,  // measure 26
0000
0001
0010
0100
1000
0000
0001
0001
,  // measure 27
0100
0000
0010
0000
1000
0010
0100
0001
,  // measure 28
0000
1000
0100
1000
0100
0001
0010
1000
,  // measure 29
0100
0000
0010
0000
0100
1000
0010
0100
,  // measure 30
0000
0001
0001
0100
0100
0010
0100
0000
,  // measure 31
0002
0000
0010
0000
0103
0010
1000
0100
,  // measure 32
2000
0000
0010
0000
3100
0010
0001
0010
,  // measure 33
0200
0000
1000
0000
0301
0000
1000
0010
,  // measure 34
0100
0001
0100
0000
0001
0100
0001
0000
,  // measure 35
0002
0000
0100
0000
0013
0000
0100
0010
,  // measure 36
2000
0000
0100
0000
3010
0000
0001
0010
,  // measure 37
0200
0000
1000
0000
0310
0000
1000
0010
,  // measure 38
0000
1010
0000
0101
0000
1001
0010
0011
,  // measure 39
0002
0000
0100
0000
1003
0000
0010
0100
,  // measure 40
2000
0000
0010
0000
3100
0000
0010
0100
,  // measure 41
0020
0000
1000
0000
0130
0000
1000
0100
,  // measure 42
0010
0001
0010
0000
0001
0100
0001
0000
,  // measure 43
0002
0000
0010
0000
0103
0000
0100
0010
,  // measure 44
2000
0000
0100
0000
3010
0100
0001
0010
,  // measure 45
0200
0000
1000
0000
0301
0000
1000
0001
,  // measure 46
0000
0101
0000
0110
0000
1010
1000
2002
,  // measure 47
0000
0000
0000
0000
,  // measure 48
3003
0000
0000
0000
;
