#TITLE:キラリ☆;
#SUBTITLE:;
#ARTIST:東京女子流;
#TITLETRANSLIT:KIRARI;
#SUBTITLETRANSLIT:;
#ARTISTTRANSLIT:TOKYO JOSHIRYU;
#GENRE:;
#CREDIT:Chewi☆;
#MENUCOLOR:#FFFFFF;
#METERTYPE:DDR X;
#BANNER:KIRARI.png;
#BACKGROUND:KIRARI-bg.png;
#LYRICSPATH:;
#CDTITLE:./CDTITLES/DanceDanceRevolution skyMIX3 -breeze-.png;
#MUSIC:KIRARI.mp3;
#OFFSET:-1.170;
#SAMPLESTART:55.461;
#SAMPLELENGTH:15.000;
#SELECTABLE:YES;
#LISTSORT:;
#DISPLAYBPM:105.000;
#BPMS:0.000=105.000;
#STOPS:;
#BGCHANGES:0.000=KIRARI.avi=1.000=1=0=0,
99999=-nosongbg-=1.000=0=0=0 // don't automatically add -songbackground-
;
#ATTACKS:;

//---------------dance-single - Chewi----------------
#NOTES:
     dance-single:
     Chewi:
     Beginner:
     1:
     0.074,0.084,0.029,0.000,0.000:
0000
0000
0000
0000
,
0000
0000
0000
0000
,
0000
0000
0000
0000
,
0000
0000
0000
0000
,
1000
0000
0000
0000
,
0100
0000
0000
0000
,
1000
0000
0000
0000
,
0100
0000
0000
0000
,
0001
0000
0000
0000
,
1001
0000
0000
0000
,
0010
0000
0000
0000
,
0110
0000
0000
0000
,
1000
0000
0000
0000
,
1001
0000
0000
0000
,
0100
0000
0000
0000
,
0100
0000
0000
0000
,
0010
0000
0000
0000
,
0001
0000
0000
0000
,
0100
0000
0000
0000
,
1000
0000
0000
0000
,
0010
0000
0000
0000
,
1000
0000
0000
0000
,
0100
0000
0000
0000
,
0001
0000
0000
0000
,
0010
0000
0010
0000
,
0010
0000
0000
0000
,
0100
0000
0100
0000
,
0100
0000
0000
0000
,
1000
0000
1000
0000
,
1000
0000
0000
0000
,
0001
0000
0001
0000
,
0001
0000
0000
0000
,
0100
0000
0100
0000
,
0100
0000
0000
0000
,
0010
0000
0010
0000
,
0010
0000
0000
0000
,
1000
0000
1000
0000
,
1000
0000
0000
0000
,
0001
0000
0001
0000
,
0001
0000
0000
0000
,
0100
0000
0000
0000
,
1000
0000
0000
0000
,
0010
0010
0010
0010
;

//---------------dance-single - Chewi----------------
#NOTES:
     dance-single:
     Chewi:
     Easy:
     4:
     0.175,0.189,0.039,0.020,0.000: // measure 1
0000
0000
0000
0000
,  // measure 2
0000
0000
0000
0000
,  // measure 3
0000
0000
0000
0000
,  // measure 4
0000
0000
0000
0000
,  // measure 5
1000
0100
1000
0000
,  // measure 6
0100
0000
1001
0000
,  // measure 7
0001
0100
0001
0000
,  // measure 8
0100
0000
1001
0000
,  // measure 9
1000
0000
0010
0000
,  // measure 10
0100
0000
0000
0000
,  // measure 11
0001
0000
0010
0000
,  // measure 12
0100
0000
0000
0000
,  // measure 13
1000
0000
0001
0000
,  // measure 14
0100
0100
0100
0000
,  // measure 15
0001
0000
1000
0000
,  // measure 16
0010
0010
0010
0000
,  // measure 17
1000
0100
0001
0100
,  // measure 18
1000
0000
0000
0000
,  // measure 19
1000
0010
0001
0010
,  // measure 20
1000
0000
0000
0000
,  // measure 21
1000
0100
0010
0001
,  // measure 22
0010
0000
0010
0000
,  // measure 23
0001
0010
0100
1000
,  // measure 24
0100
0000
0100
0000
,  // measure 25
1000
1000
1000
1000
,  // measure 26
0001
0001
0001
0001
,  // measure 27
0100
0100
0100
0100
,  // measure 28
0010
0010
0010
0010
,  // measure 29
0010
1000
0010
0001
,  // measure 30
0010
1000
0010
0001
,  // measure 31
0100
1000
0100
0001
,  // measure 32
0100
1000
0010
0001
,  // measure 33
0010
0010
0010
0010
,  // measure 34
0100
0100
0100
0100
,  // measure 35
0001
0001
0001
0001
,  // measure 36
1000
1000
1000
1000
,  // measure 37
0100
1000
0010
1000
,  // measure 38
0100
1000
0010
0001
,  // measure 39
0100
0001
0010
0001
,  // measure 40
0100
0001
0010
1000
,  // measure 41
0100
0001
0010
0100
,  // measure 42
0010
0000
1001
0000
,  // measure 43
0220
0000
0000
0330
;

//---------------dance-single - Chewi----------------
#NOTES:
     dance-single:
     Chewi:
     Medium:
     6:
     0.246,0.252,0.049,0.020,0.029: // measure 1
0000
0000
0000
0000
,  // measure 2
0000
0000
0000
0000
,  // measure 3
0000
0000
0000
0000
,  // measure 4
0000
0000
0000
0000
0000
0000
0000
0000
0010
0000
0000
0010
0000
1000
0000
1000
,  // measure 5
0000
0000
0000
0000
0100
0000
0000
0010
0000
0000
0000
0000
0000
0000
0000
0000
,  // measure 6
0000
0000
0000
0000
0001
0000
0000
0100
0000
0000
0010
0000
1000
0000
0010
0000
,  // measure 7
0001
0000
0000
0000
,  // measure 8
1001
0000
0000
0000
0110
0000
0001
0010
,  // measure 9
0001
0000
1000
0000
0100
0000
1000
0100
,  // measure 10
1000
0000
0000
0000
0000
0000
0010
0100
,  // measure 11
0010
0000
1000
0000
0001
0000
0010
0100
,  // measure 12
0010
0000
0000
0000
0000
0000
0001
0010
,  // measure 13
0001
0000
1000
0000
0100
0000
1000
0010
,  // measure 14
1000
0010
0100
0000
,  // measure 15
0100
0010
1000
0100
,  // measure 16
0001
0000
0000
0000
,  // measure 17
0001
0010
0001
0000
0100
0000
1000
0000
,  // measure 18
0010
0000
0000
0000
,  // measure 19
0010
1000
0010
0000
1000
0000
0100
0000
,  // measure 20
0001
0000
0000
0000
0000
0000
0010
0100
,  // measure 21
0010
0001
1000
0010
,  // measure 22
0001
0000
0100
0000
1000
0000
0010
0100
,  // measure 23
0010
0000
0100
0010
0100
0000
0010
0000
,  // measure 24
1000
0000
0000
0001
0000
0000
1000
0000
0001
0000
0000
0000
0000
0000
0000
0000
,  // measure 25
1000
0000
0100
0000
0010
0001
0010
0000
,  // measure 26
0001
0000
0100
0000
0010
1000
0010
0000
,  // measure 27
0100
0000
0010
0000
1000
0001
1000
0000
,  // measure 28
0100
0000
0010
0000
0001
1000
0001
0000
,  // measure 29
1000
0000
0100
0000
0001
0010
0001
0000
,  // measure 30
0001
0000
0100
0000
1000
0010
1000
0000
,  // measure 31
0010
0100
0001
1000
,  // measure 32
0100
0011
0100
1010
,  // measure 33
0001
0000
1000
0000
0100
1000
0100
0000
,  // measure 34
1000
0000
0001
0000
0010
0001
0010
0000
,  // measure 35
0100
0000
0010
0000
0001
1000
0001
0000
,  // measure 36
0010
0000
0100
0000
1000
0100
1000
0000
,  // measure 37
0001
0000
0100
0000
0010
1000
0001
0000
,  // measure 38
0010
0000
0100
0000
0010
0001
1000
0000
,  // measure 39
0100
0010
0100
0000
0100
1000
0100
0000
,  // measure 40
1001
0000
0000
0100
0000
0000
0000
0010
,  // measure 41
0000
1000
0001
0000
0010
0100
0010
0000
,  // measure 42
0001
0000
0010
0000
0100
1000
0010
0100
,  // measure 43
0020
0000
0000
0000
0000
0000
0000
0000
0000
0000
0000
0000
0000
0000
0000
0000
0000
0000
0000
0000
0000
0000
0000
0000
0000
0000
0000
0000
0000
0000
0000
0000
0000
0000
0000
0000
0000
0000
0000
0000
0000
0000
0000
0000
0000
0000
0000
0000
1000
0000
0000
0000
0000
0000
0000
0000
0000
0000
0000
0000
0000
0000
0000
0000
0000
0000
0000
0000
0000
0000
0000
0000
0000
0000
0000
0000
0000
0000
0000
0000
0000
0000
0000
0000
0000
0000
0000
0000
0000
0000
0000
0000
0000
0000
0000
0000
2000
0000
0000
0000
0000
0000
0000
0000
0000
0000
0000
0000
0000
0000
0000
0000
0000
0000
0000
0000
0000
0000
0000
0000
0000
0000
0000
0000
0000
0000
0000
0000
0000
0000
0000
0000
0000
0000
0000
0000
0000
0000
0000
0000
0000
0000
0000
0000
0000
3030
0000
0000
0000
0000
0000
0000
0000
0000
0000
0000
0000
0000
0000
0000
0000
0000
0000
0000
0000
0000
0000
0000
0000
0000
0000
0000
0000
0000
0000
0000
0000
0000
0000
0000
0000
0000
0000
0000
0000
0000
0000
0000
0000
0000
0000
0000
;

//---------------dance-single - Chewi----------------
#NOTES:
     dance-single:
     Chewi:
     Hard:
     10:
     0.320,0.336,0.079,0.039,0.103: // measure 1
0000
0000
0000
0000
,  // measure 2
0000
0000
0000
0000
,  // measure 3
0000
0000
0000
0000
,  // measure 4
0000
0000
0000
0000
0000
0000
0000
0000
1000
0000
0100
0010
0000
0001
0000
0010
,  // measure 5
0000
0000
0000
0000
0100
0000
0000
0100
0000
0000
0000
0000
0000
0000
0000
0000
,  // measure 6
0000
0000
0000
0000
1000
0000
0000
0100
0000
0000
0010
0000
0001
0000
1000
0000
,  // measure 7
0010
0000
0000
0000
,  // measure 8
0110
0000
0000
0000
1001
0000
0001
0010
,  // measure 9
0100
0000
1000
0100
0010
0000
0001
1000
,  // measure 10
0002
0000
0000
0000
0003
0000
0001
1000
,  // measure 11
0010
0000
1000
0001
0010
0000
0100
0010
,  // measure 12
0200
0000
0000
0000
0300
0000
0010
0100
,  // measure 13
1000
0000
0010
0100
0001
0000
0100
0010
,  // measure 14
1000
0001
0010
0100
1000
0000
0000
1000
,  // measure 15
0100
0010
0001
1000
0100
0001
0010
1000
,  // measure 16
0010
0000
0100
0000
0010
0100
0010
0000
,  // measure 17
1010
0000
0101
0000
1000
0100
0001
0100
,  // measure 18
1000
0000
0000
0000
0000
0000
1000
0010
,  // measure 19
0011
0000
1010
0000
0001
0010
1000
0010
,  // measure 20
0001
0000
0000
0000
0000
0000
0010
0100
,  // measure 21
0010
0000
1000
0100
0010
0000
0001
1000
,  // measure 22
0010
0000
1000
0001
0010
0000
0100
0010
,  // measure 23
0100
0000
1000
0010
1000
0000
0010
0100
,  // measure 24
0010
0000
0000
0001
0000
0000
0010
0000
0110
0000
0000
0000
0000
0000
0000
0000
,  // measure 25
0001
0000
0000
0000
0010
0000
0000
0100
0000
0000
0000
0000
1000
0000
0100
0000
,  // measure 26
0010
0000
0001
0000
1000
0000
0000
0010
0000
0000
0100
0000
0001
0000
0100
0000
,  // measure 27
0010
0000
1000
0001
0010
0100
1000
0100
,  // measure 28
0010
0000
0000
0000
0001
0000
0000
0000
1000
0000
0010
1000
0000
0100
0000
0010
,  // measure 29
0000
0000
0000
0000
0001
0000
0000
0010
0000
0000
0100
0000
1000
0000
0010
0000
,  // measure 30
0100
0000
0001
0000
0100
0000
0000
0010
0000
0000
1000
0000
0001
0000
0010
0000
,  // measure 31
0001
0010
0100
0000
0010
0100
1000
0100
,  // measure 32
0010
0000
0000
0000
0001
0000
0010
0000
0100
0000
1000
0000
0000
1000
0000
0000
,  // measure 33
0001
0000
0100
0000
1000
0000
0000
0001
0000
0000
0000
0000
0100
0000
1000
0000
,  // measure 34
0100
0000
0010
0000
0001
0000
0000
1000
0000
0000
0010
0000
0100
0000
0001
0000
,  // measure 35
0100
0010
1000
0000
0001
0010
0100
1000
,  // measure 36
0100
0000
0010
0000
0001
0000
1000
0000
0010
0000
0100
0001
0000
0010
0000
0100
,  // measure 37
0000
0000
0000
0000
0010
0000
0000
0001
0000
0000
0000
0000
0000
0000
0000
0000
,  // measure 38
0001
0000
0010
0000
0100
0000
0000
1000
0000
0000
0100
0000
0100
0000
0100
0000
,  // measure 39
0010
1000
0001
0000
0010
0001
1000
0010
,  // measure 40
0100
0000
0001
0001
0000
1000
0001
1000
,  // measure 41
0000
1000
1000
0000
1000
0100
0010
0001
,  // measure 42
0010
0100
0010
0000
0001
1000
0001
0100
,  // measure 43
0220
0000
0000
0330
;
