#TITLE:KEEP IT GOING;
#SUBTITLE:;
#ARTIST:K.Wit feat. Anthony Shoemo;
#TITLETRANSLIT:;
#SUBTITLETRANSLIT:;
#ARTISTTRANSLIT:;
#GENRE:;
#CREDIT:Chewi☆;
#MENUCOLOR:#FFFFFF;
#METERTYPE:DDR X;
#BANNER:KEEP IT GOING.png;
#BACKGROUND:KEEP IT GOING-bg.png;
#LYRICSPATH:;
#CDTITLE:./CDTITLES/DanceDanceRevolution skyMIX2 -FREEDOM-.png;
#MUSIC:KEEP IT GOING.mp3;
#OFFSET:-0.009;
#SAMPLESTART:43.192;
#SAMPLELENGTH:15.000;
#SELECTABLE:YES;
#LISTSORT:;
#DISPLAYBPM:100.000;
#BPMS:0.000=100.000;
#STOPS:;
#BGCHANGES:;
#ATTACKS:;

//---------------dance-single - Chewi----------------
#NOTES:
     dance-single:
     Chewi:
     Beginner:
     1:
     0.059,0.082,0.011,0.000,0.000: // measure 1
0000
0000
0000
0000
,  // measure 2
0000
0000
0000
0000
,  // measure 3
1000
0000
0000
0000
,  // measure 4
0001
0000
0000
0000
,  // measure 5
0010
0000
0000
0000
,  // measure 6
0100
0000
0000
0000
,  // measure 7
1000
0000
0000
0000
,  // measure 8
0001
0000
0000
0000
,  // measure 9
0010
0000
0000
0000
,  // measure 10
0100
0000
0000
0000
,  // measure 11
1000
0000
0000
0000
,  // measure 12
0001
0000
0000
0000
,  // measure 13
1000
0000
0000
0000
,  // measure 14
1000
0000
0000
0000
,  // measure 15
0001
0000
0000
0000
,  // measure 16
0100
0000
0000
0000
,  // measure 17
1000
0000
0000
0000
,  // measure 18
0010
0000
0000
0000
,  // measure 19
0100
0000
0000
0000
,  // measure 20
0010
0000
0000
0000
,  // measure 21
0010
0000
0000
0000
,  // measure 22
0100
0000
0000
0000
,  // measure 23
1000
0000
0000
0000
,  // measure 24
1000
0000
0000
0000
,  // measure 25
0001
0000
0000
0000
,  // measure 26
0001
0000
0000
0000
,  // measure 27
0001
0000
0000
0000
,  // measure 28
0100
0000
0000
0000
,  // measure 29
0001
0000
0000
0000
,  // measure 30
0010
0000
0000
0000
,  // measure 31
0010
0000
0000
0000
,  // measure 32
1000
0000
0000
0000
,  // measure 33
0001
0000
0000
0000
,  // measure 34
1000
0000
0000
0000
,  // measure 35
1000
0000
0000
0000
,  // measure 36
0001
0000
0000
0000
,  // measure 37
0100
0000
0000
0000
,  // measure 38
0010
0000
0000
0000
,  // measure 39
1001
0000
0000
0000
;

//---------------dance-single - Chewi----------------
#NOTES:
     dance-single:
     Chewi:
     Easy:
     3:
     0.183,0.185,0.032,0.097,0.000: // measure 1
0000
0000
0000
0000
,  // measure 2
0000
0000
0000
0000
,  // measure 3
1000
0100
1000
0000
,  // measure 4
0001
0010
0001
0000
,  // measure 5
0010
0100
0010
0000
,  // measure 6
0100
0010
0100
0000
,  // measure 7
2000
3000
0100
0100
,  // measure 8
0002
0003
0100
0100
,  // measure 9
0020
0030
1000
0001
,  // measure 10
0200
0300
0001
1000
,  // measure 11
1000
0100
0001
0000
,  // measure 12
0001
0001
0001
0000
,  // measure 13
1000
0010
0001
0000
,  // measure 14
2000
0000
0000
3000
,  // measure 15
0001
0001
0001
0001
,  // measure 16
0200
0000
0000
0300
,  // measure 17
1000
1000
1000
1000
,  // measure 18
0020
0000
0000
0030
,  // measure 19
0100
0100
0100
0100
,  // measure 20
0020
0000
0000
0030
,  // measure 21
0010
0010
0010
0010
,  // measure 22
0200
0000
0000
0300
,  // measure 23
1000
0100
0010
0001
,  // measure 24
1000
0000
1000
0000
,  // measure 25
0001
0100
0010
1000
,  // measure 26
0001
0000
0001
0000
,  // measure 27
0001
1000
0010
0100
,  // measure 28
0100
0000
0100
0000
,  // measure 29
0001
1000
0100
0010
,  // measure 30
0010
0000
0010
0000
,  // measure 31
0010
0110
0100
0000
,  // measure 32
1000
0100
0001
0010
,  // measure 33
0001
1001
1000
0000
,  // measure 34
1000
0010
0001
0100
,  // measure 35
1000
0001
1000
0000
,  // measure 36
0001
1000
0001
0000
,  // measure 37
0100
0010
0100
0000
,  // measure 38
0010
0100
0010
1000
,  // measure 39
1001
0000
0000
0000
;

//---------------dance-single - Chewi----------------
#NOTES:
     dance-single:
     Chewi:
     Medium:
     5:
     0.244,0.226,0.054,0.065,0.000: // measure 1
0000
0000
0000
0000
,  // measure 2
0000
0000
0000
0000
,  // measure 3
1000
0100
0100
0001
,  // measure 4
0001
0010
0010
1000
,  // measure 5
1000
0100
0100
1000
,  // measure 6
0010
0001
0001
0010
,  // measure 7
0001
0100
1000
0100
,  // measure 8
0001
0010
1000
0010
,  // measure 9
0001
0100
0010
1000
,  // measure 10
0100
1000
0001
0010
,  // measure 11
0100
0001
0100
1010
,  // measure 12
0100
0001
0010
0100
,  // measure 13
1000
0001
0100
0101
,  // measure 14
0220
0000
0000
0330
,  // measure 15
0000
0010
0000
0010
0000
0010
0010
0000
,  // measure 16
1000
0100
0010
0001
,  // measure 17
0000
0100
0000
0100
0000
0100
0100
0000
,  // measure 18
0100
0010
1000
0001
,  // measure 19
0000
1000
0000
0001
0000
1000
0001
0000
,  // measure 20
0010
1000
0100
0001
,  // measure 21
0000
0010
0000
0100
0000
0010
0100
0000
,  // measure 22
0001
1000
0100
0010
,  // measure 23
1000
1100
0010
0001
,  // measure 24
0100
1000
0010
0001
,  // measure 25
0100
0101
0010
1000
,  // measure 26
0100
0010
1000
0100
,  // measure 27
0010
0000
0001
0000
0010
0100
0010
0000
,  // measure 28
0100
0000
1000
0000
0010
1000
0010
0000
,  // measure 29
0100
0000
0010
0000
1000
0001
1000
0000
,  // measure 30
0100
0000
0010
0000
0001
0100
0001
0000
,  // measure 31
2000
0010
0001
0100
,  // measure 32
3002
0100
1000
0010
,  // measure 33
0023
0001
0100
1000
,  // measure 34
0230
0010
0001
0010
,  // measure 35
0310
0100
0000
0100
0000
0100
0010
0000
,  // measure 36
1000
0100
0001
0010
,  // measure 37
0000
0100
0000
0100
0000
0100
0100
0000
,  // measure 38
0100
0001
0010
1000
,  // measure 39
0100
0000
0000
0000
;

//---------------dance-single - Chewi----------------
#NOTES:
     dance-single:
     Chewi:
     Hard:
     8:
     0.396,0.350,0.173,0.119,0.000: // measure 1
0000
0000
0000
0000
,  // measure 2
0000
0000
0000
0000
,  // measure 3
1000
0100
0010
0001
1000
0100
0010
0001
,  // measure 4
2000
3020
0230
0302
,  // measure 5
0103
0001
0010
0100
1000
0010
0100
0001
,  // measure 6
0200
0320
2030
3002
,  // measure 7
0013
0100
0110
0000
0010
0100
0110
0000
,  // measure 8
0010
0001
0100
1000
0010
1000
0100
0001
,  // measure 9
0010
0100
1000
0000
0010
0001
0100
0000
,  // measure 10
0100
0010
1000
0000
0010
0001
0100
0000
,  // measure 11
0001
0001
1000
1000
1000
0100
0010
0001
,  // measure 12
0100
1000
0010
1000
0100
0010
0001
0100
,  // measure 13
0010
1000
0001
0010
0100
0001
0010
1000
,  // measure 14
0200
0000
0000
0000
0310
0010
0010
0000
,  // measure 15
0001
0101
1000
1100
,  // measure 16
0001
1000
0010
0000
1000
0001
0010
0000
,  // measure 17
1000
1100
0001
0101
,  // measure 18
1000
0001
0100
0000
0001
1000
0010
0000
,  // measure 19
0010
0110
0100
0110
,  // measure 20
1000
0001
0100
0000
0001
1000
0100
0000
,  // measure 21
0010
0011
0100
1100
,  // measure 22
0010
0100
1000
0100
0010
0001
0100
0001
,  // measure 23
0010
0010
0010
0010
0100
0010
0100
0000
,  // measure 24
0100
0100
0100
0100
0010
0100
0010
0000
,  // measure 25
0001
0100
1000
0010
0001
0100
0001
0000
,  // measure 26
0001
0010
1000
0100
0001
0100
0001
0100
,  // measure 27
0020
0000
1000
0000
0001
0001
0031
0000
,  // measure 28
0001
0100
1000
0010
0100
0000
0110
0000
,  // measure 29
2000
0000
0100
0000
0010
0010
3010
0000
,  // measure 30
0010
0001
0100
1000
0010
0000
1010
0000
,  // measure 31
0010
1000
0100
1000
0010
1000
0100
0000
,  // measure 32
0010
0001
0100
0001
0010
0001
0100
0000
,  // measure 33
0010
0100
0001
1000
0100
0010
0001
0000
,  // measure 34
0010
0100
1000
0001
0100
1000
0010
0001
,  // measure 35
1000
1010
0000
0011
0000
0010
0100
1000
,  // measure 36
0001
1000
0001
1000
0010
0100
0010
0100
,  // measure 37
0010
1010
0000
0011
0000
0001
0010
0100
,  // measure 38
1000
0010
1000
0100
0010
0001
0100
0001
,  // measure 39
0010
0000
0000
0000
;
