#TITLE:Just Be Friends;
#SUBTITLE:;
#ARTIST:Dixie Flatline feat. ゼブラ;
#TITLETRANSLIT:;
#SUBTITLETRANSLIT:;
#ARTISTTRANSLIT:Dixie Flatline feat. Zebra;
#GENRE:;
#CREDIT:yamamoto_;
#MENUCOLOR:;
#METERTYPE:DDR X;
#BANNER:Just Be Friends.png;
#BACKGROUND:Just Be Friends-bg.png;
#LYRICSPATH:;
#CDTITLE:;
#MUSIC:Just Be Friends.mp3;
#OFFSET:-0.550;
#SAMPLESTART:67.301;
#SAMPLELENGTH:15.000;
#SELECTABLE:YES;
#LISTSORT:;
#DISPLAYBPM:128.000;
#BPMS:0.000=128.000;
#STOPS:;
#BGCHANGES:;
#ATTACKS:;

//---------------dance-single - yamamoto_----------------
#NOTES:
     dance-single:
     yamamoto_:
     Beginner:
     2:
     0.144,0.154,0.008,0.061,0.000:
0000
0000
0000
0000
,
0000
0000
0000
0000
,
0000
0000
0000
0000
,
0000
0000
0000
0000
,
2000
0000
0000
3000
,
1000
0000
1000
0000
,
0002
0000
0000
0003
,
0001
0000
0001
0000
,
0020
0000
0000
0030
,
0010
0000
0010
0000
,
0200
0000
0000
0300
,
0100
0000
0100
0000
,
1000
0000
1000
0000
,
0001
0000
0001
0000
,
1000
0000
1000
0000
,
0001
0000
0001
0000
,
1000
0000
0100
0000
,
0001
0000
0100
0000
,
0010
0000
0100
0000
,
0100
0000
0010
0000
,
0010
0000
0010
0000
,
0010
0000
0010
0000
,
0010
0000
0010
0000
,
0010
0000
0010
0000
,
1000
0000
0010
0000
,
0001
0000
0010
0000
,
1000
0000
0001
0000
,
0001
0000
1000
0000
,
1000
0000
1000
0000
,
0010
0000
0100
0000
,
0001
0000
0001
0000
,
0010
0000
0100
0000
,
0010
0000
0010
0000
,
1000
0000
0100
0000
,
0010
0000
0010
0000
,
0001
0000
0100
0000
,
1000
0000
1000
0000
,
1000
1000
1000
0000
,
0001
0000
0100
0000
,
1000
0000
0010
0000
,
0010
0000
0010
0000
,
0010
0010
0010
0000
,
1000
0000
0010
0000
,
0100
0000
0100
0000
,
0001
0000
0001
0000
,
0001
0001
0001
0000
,
1000
0000
0010
0000
,
0001
0000
0100
0000
,
0100
0000
0100
0000
,
0100
0100
0100
0000
,
0001
0000
0100
0000
,
0010
0000
0010
0000
,
0002
0000
0000
0003
,
0001
0000
0001
0000
,
2000
0000
0000
3000
,
1000
0000
1000
0000
,
0200
0000
0000
0300
,
0100
0000
0100
0000
,
0020
0000
0000
0030
,
0010
0000
0010
0000
,
0001
0000
0001
0000
,
1000
0000
1000
0000
,
0001
0000
0001
0000
,
1000
0000
1000
0000
,
0001
0000
0010
0000
,
1000
0000
0010
0000
,
0100
0000
0010
0000
,
0010
0000
0000
0000
,
0110
0000
0000
0000
;

//---------------dance-single - yamamoto_----------------
#NOTES:
     dance-single:
     yamamoto_:
     Easy:
     4:
     0.268,0.334,0.083,0.182,0.000:
0000
0000
0000
0000
,
0000
0000
0000
0000
,
0000
0000
0000
0000
,
0000
0000
0000
0000
,
2000
0000
0001
0000
,
0100
0100
3100
0000
,
0002
0000
1000
0000
,
0100
0100
0103
0000
,
0020
0000
0100
0000
,
0100
0100
0130
0000
,
0200
0000
0010
0000
,
0010
0010
0310
0000
,
1000
0100
1000
0100
,
0001
0100
0001
0100
,
1000
0100
1000
0100
,
0001
0100
0001
0100
,
1000
0001
0100
0000
,
0001
1000
0100
0000
,
0010
0100
0110
0000
,
0100
0010
0110
0000
,
0010
0001
0010
0001
,
0010
1000
0010
1000
,
0010
0001
0010
0001
,
0010
1000
0010
1000
,
1000
0100
0010
0000
,
0001
0100
0010
0000
,
1000
0001
1001
0000
,
0001
1000
1001
0000
,
1000
0100
1000
0100
,
0010
0001
0100
0000
,
0001
0100
0001
0100
,
0010
1000
0100
0000
,
0010
0100
0010
0100
,
1000
0001
0100
0000
,
0010
0100
0010
0100
,
0001
1000
0100
0000
,
2000
3002
0203
0320
,
1030
1000
1001
0000
,
0001
0010
0100
1000
,
1000
0100
0010
0001
,
2000
3020
0230
0302
,
0103
0010
0110
0000
,
1000
0001
0010
1000
,
0100
0001
0100
1000
,
0002
2003
3020
0230
,
0301
0001
1001
0000
,
1000
0100
0010
0001
,
0001
0010
0100
1000
,
0002
0203
0320
2030
,
3010
0100
0110
0000
,
0001
1000
0100
0001
,
0010
1000
0010
0001
,
0002
0000
1000
0000
,
0010
0010
0013
0000
,
2000
0000
0001
0000
,
0010
0010
3010
0000
,
0200
0000
0010
0000
,
0010
0010
0310
0000
,
0020
0000
0100
0000
,
0100
0100
0130
0000
,
0001
0010
0001
0010
,
1000
0010
1000
0010
,
0001
0010
0001
0010
,
1000
0010
1000
0010
,
0001
1000
0010
0000
,
1000
0001
0010
0000
,
0100
0010
0110
0000
,
0010
0100
0110
0000
,
1001
0000
0000
0000
;

//---------------dance-single - yamamoto_----------------
#NOTES:
     dance-single:
     yamamoto_:
     Medium:
     8:
     0.335,0.360,0.136,0.197,0.000: // measure 1
0000
0000
0000
0000
,  // measure 2
0000
0000
0000
0000
,  // measure 3
0000
0000
0000
0000
,  // measure 4
0000
0000
0000
0000
,  // measure 5
2000
0100
0000
3100
,  // measure 6
0002
0010
0000
0013
,  // measure 7
2000
0010
0000
3010
,  // measure 8
0002
0100
0000
0103
,  // measure 9
2000
0001
0000
3001
,  // measure 10
0002
1000
0000
1003
,  // measure 11
0020
0000
0000
0000
,  // measure 12
0230
0000
0000
0000
,  // measure 13
1300
0000
0100
0000
1000
0100
1000
0000
,  // measure 14
0010
0100
0001
0101
,  // measure 15
0001
0000
0010
0000
0001
0010
0001
0000
,  // measure 16
0010
0100
1000
1100
,  // measure 17
2000
0001
0100
3001
,  // measure 18
0002
1000
0100
1003
,  // measure 19
1000
0010
1000
0000
0001
0000
0100
0000
,  // measure 20
0001
0100
0001
0000
1000
0000
0010
0000
,  // measure 21
0001
0000
0010
0000
0001
0010
0001
0000
,  // measure 22
0100
0010
1000
1010
,  // measure 23
1000
0000
0100
0000
1000
0100
1000
0000
,  // measure 24
0100
0010
0001
0011
,  // measure 25
0002
1000
0010
1003
,  // measure 26
2000
0001
0010
3001
,  // measure 27
0001
0100
0001
0000
1000
0000
0010
0000
,  // measure 28
1000
0010
1000
0000
0001
0000
0100
0000
,  // measure 29
0110
0000
0100
0000
0010
0100
0001
0000
,  // measure 30
1000
0100
0010
0011
,  // measure 31
1001
0000
0100
0000
0010
0100
0001
0000
,  // measure 32
0010
1000
0100
0001
,  // measure 33
0010
0000
0100
0000
0010
0001
0010
0000
,  // measure 34
0100
1000
0010
1100
,  // measure 35
1000
0000
0010
0000
0100
0001
0010
0000
,  // measure 36
0100
0010
0011
0000
,  // measure 37
2001
0100
0010
3001
,  // measure 38
0010
1000
0010
0000
1000
0010
1000
0000
,  // measure 39
1020
0100
1000
0130
,  // measure 40
1000
0100
0010
0000
0001
0010
0100
0000
,  // measure 41
0021
0100
0001
0130
,  // measure 42
0001
0010
0100
0000
1000
0010
0100
0000
,  // measure 43
1002
0100
1000
0013
,  // measure 44
1000
0100
1000
0000
0001
0010
0001
0000
,  // measure 45
1002
0010
0100
1003
,  // measure 46
0100
0001
0100
0000
0001
0100
0001
0000
,  // measure 47
0201
0010
0001
0310
,  // measure 48
0001
0010
0100
0000
1000
0100
0010
0000
,  // measure 49
1200
0010
1000
0310
,  // measure 50
1000
0100
0010
0000
0001
0100
0010
0000
,  // measure 51
2001
0010
0001
3100
,  // measure 52
0001
0010
0001
0000
1000
0100
1000
0000
,  // measure 53
0002
0010
0000
0013
,  // measure 54
2000
0100
0000
3100
,  // measure 55
0002
0100
0000
0103
,  // measure 56
2000
0010
0000
3010
,  // measure 57
0002
1000
0000
1003
,  // measure 58
2000
0001
0000
3001
,  // measure 59
0001
0100
1000
0010
,  // measure 60
0001
0100
1000
0100
,  // measure 61
1000
0100
0001
0010
,  // measure 62
1000
0010
1000
0010
,  // measure 63
0100
0010
1000
0001
,  // measure 64
1000
0100
0010
0001
,  // measure 65
0010
0100
0010
0001
,  // measure 66
0100
0010
1000
0001
,  // measure 67
1000
0100
0001
0010
,  // measure 68
1000
0100
0010
0001
,  // measure 69
0011
0000
0000
0000
;

//---------------dance-single - yamamoto_----------------
#NOTES:
     dance-single:
     yamamoto_:
     Hard:
     10:
     0.438,0.412,0.189,0.151,0.000: // measure 1
0000
0000
0000
0000
,  // measure 2
0000
0000
0000
0000
,  // measure 3
0000
0000
0000
0000
,  // measure 4
0000
0000
0000
0000
,  // measure 5
1000
0001
0000
1000
0001
1000
0000
0001
,  // measure 6
0000
1000
0000
0010
0000
0100
0001
0000
,  // measure 7
0100
0001
0000
0001
0010
0100
0000
1000
,  // measure 8
0000
0010
0000
1000
0000
0100
0010
0000
,  // measure 9
0100
0010
0000
0001
1000
0010
0000
0100
,  // measure 10
0000
0010
0000
1000
0000
0100
0010
0001
,  // measure 11
0010
1000
0100
0001
,  // measure 12
0010
1000
0100
0000
0010
0001
0100
0000
,  // measure 13
2000
0001
0100
3010
,  // measure 14
1000
0010
1000
0000
0001
0100
0001
0000
,  // measure 15
2000
0100
0010
3001
,  // measure 16
0010
0001
0010
0000
0001
0010
0001
0000
,  // measure 17
0001
0010
0100
1000
0010
1000
0100
0000
,  // measure 18
1000
0001
1000
0000
0001
1000
0001
0000
,  // measure 19
1000
0010
0100
0001
1000
0010
0100
0000
,  // measure 20
0001
0100
0001
0000
1000
0100
1000
0000
,  // measure 21
0002
1000
0010
0103
,  // measure 22
0001
0100
0001
0000
1000
0010
1000
0000
,  // measure 23
0002
0010
0100
1003
,  // measure 24
0100
1000
0100
0000
1000
0100
1000
0000
,  // measure 25
1000
0100
0010
0001
0100
0001
0010
0000
,  // measure 26
0001
1000
0001
0000
1000
0001
1000
0000
,  // measure 27
0001
0100
0010
1000
0001
0100
0010
0000
,  // measure 28
1000
0010
1000
0000
0001
0010
0001
0000
,  // measure 29
1001
0100
0010
0000
1000
0000
0010
0000
,  // measure 30
0100
0100
0001
0000
0010
0000
0100
0000
,  // measure 31
1100
1000
0010
0000
0100
0000
0010
0000
,  // measure 32
1000
0001
0010
0000
0010
0000
0100
0000
,  // measure 33
0100
0010
0001
0010
0001
0000
0011
0000
,  // measure 34
0001
0010
0100
1000
0010
0000
1010
0000
,  // measure 35
1000
0001
1000
0000
0001
1000
0001
2002
,  // measure 36
0000
0000
0000
3003
0000
1000
0010
0100
,  // measure 37
0002
0000
2003
0000
3010
1000
0001
0020
,  // measure 38
0000
0230
0000
1300
0000
1010
0000
1001
,  // measure 39
0000
0011
0000
0001
0010
0100
1000
0020
,  // measure 40
0000
1000
1030
0000
0000
1000
0010
0100
,  // measure 41
0002
0000
1003
0000
0001
1000
0100
0010
,  // measure 42
0002
0000
0013
0000
0010
0100
1000
0010
,  // measure 43
0100
0000
1000
0000
0010
0001
0100
0000
,  // measure 44
1000
0010
0001
0000
0001
0010
0001
0010
,  // measure 45
0100
1000
0020
0000
0032
0000
0013
2000
,  // measure 46
0000
3020
0000
1030
0100
0000
0000
0001
,  // measure 47
0010
0100
1000
0000
1000
0100
0010
0001
,  // measure 48
0100
0010
0200
0000
0000
0301
0100
0010
,  // measure 49
2000
0000
3001
0000
1000
0001
0010
0100
,  // measure 50
2000
0000
3100
0000
0100
0010
0001
0100
,  // measure 51
0010
0000
0001
0000
0100
1000
0010
0000
,  // measure 52
0001
0100
1000
0000
1000
0100
1000
0100
,  // measure 53
0010
0001
0100
0000
0010
1000
0100
0000
,  // measure 54
1100
0101
0110
1001
,  // measure 55
0100
0010
1000
0000
0010
0100
0001
0000
,  // measure 56
0101
1100
0101
0011
,  // measure 57
0010
0100
1000
0000
0100
0010
0001
0000
,  // measure 58
0011
0101
1010
1100
,  // measure 59
0100
0010
0001
0000
0001
0010
0100
0000
,  // measure 60
1100
1010
1001
0101
,  // measure 61
0100
0100
0000
0010
0001
0010
0000
0000
,  // measure 62
0001
0010
0100
1000
0001
0010
0100
1000
,  // measure 63
0100
0100
0000
1000
0010
1000
0000
0000
,  // measure 64
1000
0010
0100
0001
1000
0010
0100
0001
,  // measure 65
1000
1000
0000
0100
0010
0001
0000
0000
,  // measure 66
0001
0010
0100
0010
0001
0010
0100
0010
,  // measure 67
0001
0010
0000
1000
0100
1000
0000
0000
,  // measure 68
1000
0001
0100
0001
1000
0001
0100
0001
,  // measure 69
1001
0000
0000
0000
;

//---------------dance-single - yamamoto_----------------
#NOTES:
     dance-single:
     yamamoto_:
     Challenge:
     9:
     0.282,0.334,0.091,0.197,0.000: // measure 1
0000
0000
0000
0000
,  // measure 2
0000
0000
0000
0000
,  // measure 3
0000
0000
0000
0000
,  // measure 4
0000
0000
0000
0000
,  // measure 5
2000
0100
3000
MMMM
,  // measure 6
0002
0010
0003
MMMM
,  // measure 7
2000
0010
3000
MMMM
,  // measure 8
0002
0100
0003
MMMM
,  // measure 9
2000
0001
3000
MMMM
,  // measure 10
0002
1000
0003
MMMM
,  // measure 11
0020
0000
0000
0000
,  // measure 12
0230
0000
0000
0000
,  // measure 13
1300
0000
0100
0000
1000
0100
1000
0000
,  // measure 14
0010
0100
0001
MMMM
,  // measure 15
0001
0000
0010
0000
0001
0010
0001
0000
,  // measure 16
0010
0100
1000
MMMM
,  // measure 17
2000
0001
3100
MMMM
,  // measure 18
0002
1000
0103
MMMM
,  // measure 19
1000
0010
1000
0000
0001
0000
0100
0000
,  // measure 20
0001
0100
0001
0000
1000
0000
0010
0000
,  // measure 21
0001
0000
0010
0000
0001
0010
0001
0000
,  // measure 22
0100
0010
1000
MMMM
,  // measure 23
1000
0000
0100
0000
1000
0100
1000
0000
,  // measure 24
0100
0010
0001
MMMM
,  // measure 25
0002
1000
0013
MMMM
,  // measure 26
2000
0001
3010
MMMM
,  // measure 27
0001
0100
0001
0000
1000
0000
0010
0000
,  // measure 28
1000
0010
1000
0000
0001
0000
0100
0000
,  // measure 29
0110
0000
0100
0000
0010
0100
0001
0000
,  // measure 30
1000
0100
0010
MMMM
,  // measure 31
1001
0000
0100
0000
0010
0100
0001
0000
,  // measure 32
0010
1000
0100
MMMM
,  // measure 33
0010
0000
0100
0000
0010
0001
0010
0000
,  // measure 34
0100
1000
0010
MMMM
,  // measure 35
1000
0000
0010
0000
0100
0001
0010
0000
,  // measure 36
0100
0010
0011
MMMM
,  // measure 37
2001
0100
3010
MMMM
,  // measure 38
0010
1000
0010
0000
1000
0010
1000
0000
,  // measure 39
1020
0100
1030
MMMM
,  // measure 40
1000
0100
0010
0000
0001
0010
0100
0000
,  // measure 41
0021
0100
0031
MMMM
,  // measure 42
0001
0010
0100
0000
1000
0010
0100
0000
,  // measure 43
1002
0100
1003
MMMM
,  // measure 44
1000
0100
1000
0000
0001
0010
0001
0000
,  // measure 45
1002
0010
0103
MMMM
,  // measure 46
0100
0001
0100
0000
0001
0100
0001
0000
,  // measure 47
0201
0010
0301
MMMM
,  // measure 48
0001
0010
0100
0000
1000
0100
0010
0000
,  // measure 49
1200
0010
1300
MMMM
,  // measure 50
1000
0100
0010
0000
0001
0100
0010
0000
,  // measure 51
2001
0010
3001
MMMM
,  // measure 52
0001
0010
0001
0000
1000
0100
1000
0000
,  // measure 53
0002
0010
0003
MMMM
,  // measure 54
2000
0100
3000
MMMM
,  // measure 55
0002
0100
0003
MMMM
,  // measure 56
2000
0010
3000
MMMM
,  // measure 57
0002
1000
0003
MMMM
,  // measure 58
2000
0001
3000
MMMM
,  // measure 59
0001
0100
1000
0010
,  // measure 60
0001
0100
1000
0100
,  // measure 61
1000
0100
0001
0010
,  // measure 62
MMMM
MMMM
MMMM
MMMM
,  // measure 63
0100
0010
1000
0001
,  // measure 64
MMMM
MMMM
MMMM
MMMM
,  // measure 65
0010
0100
0010
0001
,  // measure 66
MMMM
MMMM
MMMM
MMMM
,  // measure 67
1000
0100
0001
0010
,  // measure 68
1000
0100
0010
0001
,  // measure 69
0011
0000
0000
0000
;
