#TITLE:Jumpin', Jumpin';
#SUBTITLE:;
#ARTIST:Destiny's Child;
#TITLETRANSLIT:;
#SUBTITLETRANSLIT:;
#ARTISTTRANSLIT:;
#GENRE:R&B/Soul;
#CREDIT:chewi;
#BANNER:Jumpin' Jumpin'.png;
#BACKGROUND:Jumpin' Jumpin'-bg.png;
#LYRICSPATH:;
#CDTITLE:cdtitle.png;
#MUSIC:Jumpin' Jumpin'.ogg;
#OFFSET:-0.002000;
#SAMPLESTART:37.755001;
#SAMPLELENGTH:15.000000;
#SELECTABLE:YES;
#BPMS:0.000000=89.000000
;
#STOPS:
;
#BGCHANGES:-0.050=Jumpin' Jumpin'.avi=1.000=1=0=0=StretchNoLoop==CrossFade==,
0.000=Jumpin' Jumpin'.avi=1.000=1=0=1===CrossFade==,
184.000=Jumpin' Jumpin'-bg.png=1.000=1=0=1===CrossFade==,
99999=-nosongbg-=1.000=0=0=0 // don't automatically add -songbackground-
;
#KEYSOUNDS:;
#ATTACKS:;

//---------------dance-single - ----------------
#NOTES:
     dance-single:
     :
     Hard:
     11:
     0.454503,0.459548,0.136237,0.000000,0.400696,397.000000,380.000000,17.000000,0.000000,0.000000,0.000000,0.454503,0.459548,0.136237,0.000000,0.400696,397.000000,380.000000,17.000000,0.000000,0.000000,0.000000:
// measure 0
0000
0000
0000
0000
,  // measure 1
0000
0000
0000
0000
,  // measure 2
0000
0000
0000
0000
,  // measure 3
0000
0000
0000
0000
,  // measure 4
1000
0000
0100
0000
1000
0100
1000
0000
0001
0000
0100
0000
0001
0100
0001
0000
,  // measure 5
0100
0000
0010
0000
0100
0010
0100
0000
0010
0000
0100
0000
0010
0100
0010
0000
,  // measure 6
0000
0000
0100
0000
0010
0000
1000
0000
0001
0000
1000
0100
0010
0001
0010
0001
,  // measure 7
0000
0000
0001
0000
0010
0000
0100
0000
1000
0000
0001
0100
0010
1000
0010
1000
,  // measure 8
0000
0000
0010
0000
0100
0000
0001
1000
0100
0000
0000
0100
0000
0000
0100
1000
,  // measure 9
0010
0000
0100
0000
0001
0000
1000
0000
0010
0000
0000
0010
0000
0000
0010
0000
,  // measure 10
0100
0101
0101
0010
1100
0101
1100
1000
,  // measure 11
0000
0001
0010
0100
1100
1100
0101
0101
,  // measure 12
0000
0000
0100
0000
0010
0000
0010
0000
1000
0000
1000
0100
0010
0100
1000
0100
,  // measure 13
0000
0000
1000
0000
0010
0000
0100
0000
0010
0000
0100
0001
0010
0001
0100
0001
,  // measure 14
0001
0000
0001
0000
0100
0001
0100
0000
0010
0000
0010
0000
1000
0100
1000
0000
,  // measure 15
0100
0000
0100
0000
0010
0100
0010
0000
0010
0000
0010
0000
0100
0010
0100
0000
,  // measure 16
0010
0000
0001
0000
0100
0000
0001
1000
0000
0000
0000
0001
1000
0000
0001
0000
,  // measure 17
0010
0000
0100
0000
1000
0001
1000
0010
1000
0000
0000
0000
0000
0000
0010
0000
,  // measure 18
0100
0000
0001
0000
1000
0100
0010
0100
0000
0000
0000
1000
0001
1000
0001
1000
,  // measure 19
0001
0000
0001
0010
0100
0000
1000
0000
1001
0000
0001
0000
1001
0000
1000
0000
,  // measure 20
0100
0000
1000
0000
0010
0000
1000
0001
0000
0000
0000
1000
0001
0000
1000
0000
,  // measure 21
0100
0000
0010
0000
0001
1000
0001
0100
0001
0000
0000
0000
0000
0000
0100
0000
,  // measure 22
0010
0000
1000
0000
0001
0010
0100
0010
0000
0000
0000
0001
1000
0001
1000
0001
,  // measure 23
1000
0000
1000
0100
0010
0000
0001
0000
1001
0000
1000
0000
1001
0000
0001
0000
,  // measure 24
1000
0000
0100
0000
1000
0100
1000
0000
0100
0000
0010
0000
0100
0010
0100
0000
,  // measure 25
0010
0000
0001
0000
0010
0001
0010
0000
0001
0000
0010
0000
0001
0010
0001
0000
,  // measure 26
0001
0000
1000
0001
1000
0000
0000
1000
0000
0000
1000
0000
0001
1000
0001
1000
,  // measure 27
0100
0000
0010
0100
0010
0000
0000
0010
0000
0000
0010
0000
0100
1000
0100
1000
,  // measure 28
0100
0000
1000
0000
0100
0000
0000
0010
0000
0000
0001
0000
0010
0001
0010
0000
,  // measure 29
0001
0000
0100
0000
0010
0000
0100
0000
0001
1000
0001
1000
0001
1000
0001
1000
,  // measure 30
0001
0000
1000
0001
1000
0000
0000
0001
0000
0000
1000
0000
0001
1000
0001
1000
,  // measure 31
0010
0000
0100
0010
0100
0000
0000
0100
0000
0000
0100
0000
0010
1000
0010
1000
,  // measure 32
0010
0000
1000
0000
0100
0000
0000
0100
0000
0000
1000
0000
0100
1000
0100
0000
,  // measure 33
1000
0000
0010
0000
0100
0000
0010
0000
1000
0001
1000
0001
1000
0001
1000
0001
,  // measure 34
1000
0000
1000
0000
0010
1000
0010
0000
0100
0000
0100
0000
0001
0010
0001
0000
,  // measure 35
0010
0000
0010
0000
0100
0010
0100
0000
0100
0000
0100
0000
0010
0100
0010
0000
,  // measure 36
0100
0000
1000
0000
0010
0000
1000
0001
0000
0000
0000
1000
0001
0000
1000
0000
,  // measure 37
0100
0000
0010
0000
0001
1000
0001
0100
0001
0000
0000
0000
0000
0000
0100
0000
,  // measure 38
0010
0000
1000
0000
0001
0010
0100
0010
0000
0000
0000
0001
1000
0001
1000
0001
,  // measure 39
1000
0000
1000
0100
0010
0000
0001
0000
1001
0000
1000
0000
1001
0000
0001
0000
,  // measure 40
0010
0000
0001
0000
0100
0000
0001
1000
0000
0000
0000
0001
1000
0000
0001
0000
,  // measure 41
0010
0000
0100
0000
1000
0001
1000
0010
1000
0000
0000
0000
0000
0000
0010
0000
,  // measure 42
0100
0000
0001
0000
1000
0100
0010
0100
0000
0000
0000
1000
0001
1000
0001
1000
,  // measure 43
0001
0000
0001
0010
0100
0000
1000
0000
1001
0000
0001
0000
1001
0000
1000
0000
,  // measure 44
0001
0000
0000
0000
,  // measure 45
1000
0000
0000
0000
0010
0001
0100
1000
;

//---------------dance-single - ----------------
#NOTES:
     dance-single:
     :
     Medium:
     8:
     0.272473,0.275729,0.096167,0.000000,0.056097,238.000000,226.000000,12.000000,0.000000,0.000000,0.000000,0.272473,0.275729,0.096167,0.000000,0.056097,238.000000,226.000000,12.000000,0.000000,0.000000,0.000000:
// measure 0
0000
0000
0000
0000
,  // measure 1
0000
0000
0000
0000
,  // measure 2
0000
0000
0000
0000
,  // measure 3
0000
0000
0000
0000
,  // measure 4
1000
1000
0001
0000
0001
0001
1000
0000
,  // measure 5
0010
0010
0100
0000
0100
0100
0010
0000
,  // measure 6
0000
0010
1000
0000
0010
1000
0100
0010
,  // measure 7
0000
0100
0010
0000
0100
0010
0001
1000
,  // measure 8
0000
0001
0001
0000
1000
1000
1000
0000
,  // measure 9
0000
1000
1000
0000
0001
0001
0001
0000
,  // measure 10
1001
0000
0100
0000
1000
0010
0001
0000
,  // measure 11
1001
0000
0001
0000
0010
1000
0010
0000
,  // measure 12
1000
0000
0010
0000
0100
0100
0100
0100
,  // measure 13
0001
0000
0001
0000
0010
0010
0010
0010
,  // measure 14
0001
0001
1000
0000
1000
1000
0001
0000
,  // measure 15
0100
0100
0010
0000
0010
0010
0100
0000
,  // measure 16
0001
0000
0000
0000
1000
0000
0000
0001
0000
0000
0000
0000
1000
0000
0100
0000
,  // measure 17
0010
0001
0010
0100
1000
0000
0000
0000
,  // measure 18
1000
0000
0000
0000
0001
0000
0000
1000
0000
0000
0000
0000
0001
0000
0100
0000
,  // measure 19
0010
0100
0001
0000
0101
0000
1100
0000
,  // measure 20
1000
0000
0000
0000
0001
0000
0000
1000
0000
0000
0000
0000
0001
0000
0010
0000
,  // measure 21
0100
1000
0100
0010
0001
0000
0000
0000
,  // measure 22
0001
0000
0000
0000
1000
0000
0000
0001
0000
0000
0000
0000
1000
0000
0010
0000
,  // measure 23
0100
0010
1000
0000
1010
0000
0011
0000
,  // measure 24
1000
1000
0010
0000
0100
0100
0001
0000
,  // measure 25
1000
1000
0100
0000
0010
0010
0001
0000
,  // measure 26
0001
0000
0000
0000
0001
0000
0000
0001
0000
0000
0001
0000
0010
0000
0100
0000
,  // measure 27
0010
0000
0000
0000
0010
0000
0000
0010
0000
0000
0010
0000
0001
0000
1000
0000
,  // measure 28
0100
0000
0000
0000
0100
0000
0000
0100
0000
0000
0100
0000
1000
0000
0001
0000
,  // measure 29
1000
0000
0001
0000
0100
0100
0010
0010
,  // measure 30
1000
0000
0000
0000
1000
0000
0000
1000
0000
0000
1000
0000
0100
0000
0010
0000
,  // measure 31
0100
0000
0000
0000
0100
0000
0000
0100
0000
0000
0100
0000
1000
0000
0001
0000
,  // measure 32
0010
0000
0000
0000
0010
0000
0000
0010
0000
0000
0010
0000
0001
0000
1000
0000
,  // measure 33
0001
0000
1000
0000
0010
0010
0100
0100
,  // measure 34
0001
0001
0010
0000
0100
0100
1000
0000
,  // measure 35
1000
1000
0010
0000
0100
0100
0001
0000
,  // measure 36
0010
0000
0000
0000
0100
0000
0000
0010
0000
0000
0000
0000
0100
0000
1000
0000
,  // measure 37
0001
0010
0001
1000
0100
0000
0000
0000
,  // measure 38
0100
0000
0000
0000
0010
0000
0000
0100
0000
0000
0000
0000
0010
0000
0001
0000
,  // measure 39
1000
0001
0010
0000
0011
0000
0101
0000
,  // measure 40
0100
0000
0000
0000
0010
0000
0000
0100
0000
0000
0000
0000
0010
0000
1000
0000
,  // measure 41
0001
0100
0001
1000
0010
0000
0000
0000
,  // measure 42
0010
0000
0000
0000
0100
0000
0000
0010
0000
0000
0000
0000
0100
0000
0001
0000
,  // measure 43
1000
0001
0100
0000
1100
0000
1001
0000
,  // measure 44
0110
0000
0000
0000
,  // measure 45
1001
0000
0000
0000
1000
0001
1000
0001
;

//---------------dance-single - ----------------
#NOTES:
     dance-single:
     :
     Easy:
     3:
     0.143106,0.162282,0.080139,0.000000,0.000000,125.000000,115.000000,10.000000,0.000000,0.000000,0.000000,0.143106,0.162282,0.080139,0.000000,0.000000,125.000000,115.000000,10.000000,0.000000,0.000000,0.000000:
// measure 0
0000
0000
0000
0000
,  // measure 1
0000
0000
0000
0000
,  // measure 2
0000
0000
0000
0000
,  // measure 3
0000
0000
0000
0000
,  // measure 4
1000
0000
0001
0000
,  // measure 5
0100
0000
0010
0000
,  // measure 6
1000
1000
1000
0000
,  // measure 7
0001
0001
0001
0000
,  // measure 8
1000
0001
0010
0000
,  // measure 9
0001
1000
0010
0000
,  // measure 10
0010
0010
0010
0000
,  // measure 11
0100
0100
0100
0000
,  // measure 12
0010
0100
0001
0000
,  // measure 13
0010
0100
1000
0000
,  // measure 14
1001
0000
0110
0000
,  // measure 15
1001
0000
0110
0000
,  // measure 16
1000
0000
0001
0000
,  // measure 17
1000
0001
0100
0000
,  // measure 18
0001
0000
1000
0000
,  // measure 19
0001
1000
0100
0000
,  // measure 20
0010
0000
0100
0000
,  // measure 21
0010
0100
1000
0000
,  // measure 22
0001
0000
1000
0000
,  // measure 23
0010
0100
0001
0000
,  // measure 24
1001
0000
0110
0000
,  // measure 25
1001
0000
0110
0000
,  // measure 26
0010
0100
0001
0000
,  // measure 27
0010
0100
1000
0000
,  // measure 28
0001
1000
0001
0000
,  // measure 29
1000
0001
1000
0000
,  // measure 30
0010
0100
0001
0000
,  // measure 31
0100
0010
1000
0000
,  // measure 32
0100
0010
0001
0000
,  // measure 33
0010
0100
1000
0000
,  // measure 34
1000
1000
1000
1000
,  // measure 35
0001
0001
0001
0001
,  // measure 36
1000
0001
0100
0000
,  // measure 37
0100
0100
0010
0000
,  // measure 38
0100
0010
1000
0000
,  // measure 39
0010
0010
0100
0000
,  // measure 40
0100
0001
0010
0000
,  // measure 41
0001
0001
1000
0000
,  // measure 42
0001
1000
0010
0000
,  // measure 43
1000
1000
0001
1000
,  // measure 44
1001
0000
0000
0000
,  // measure 45
0110
0000
0000
0000
;

//---------------dance-single - ----------------
#NOTES:
     dance-single:
     :
     Beginner:
     1:
     0.054953,0.090157,0.048083,0.000000,0.000000,48.000000,42.000000,6.000000,0.000000,0.000000,0.000000,0.054953,0.090157,0.048083,0.000000,0.000000,48.000000,42.000000,6.000000,0.000000,0.000000,0.000000:
// measure 0
0000
0000
0000
0000
,  // measure 1
0000
0000
0000
0000
,  // measure 2
0000
0000
0000
0000
,  // measure 3
0000
0000
0000
0000
,  // measure 4
1000
0000
0000
0000
,  // measure 5
0100
0000
0000
0000
,  // measure 6
1000
0000
0000
0000
,  // measure 7
0001
0000
0000
0000
,  // measure 8
1000
0000
0000
0000
,  // measure 9
0001
0000
0000
0000
,  // measure 10
0010
0000
0000
0000
,  // measure 11
0100
0000
0000
0000
,  // measure 12
0010
0000
0000
0000
,  // measure 13
0010
0000
0000
0000
,  // measure 14
1001
0000
0000
0000
,  // measure 15
0110
0000
0000
0000
,  // measure 16
1000
0000
0000
0000
,  // measure 17
1000
0000
0000
0000
,  // measure 18
0001
0000
0000
0000
,  // measure 19
0001
0000
0000
0000
,  // measure 20
0010
0000
0000
0000
,  // measure 21
0010
0000
0000
0000
,  // measure 22
0001
0000
0000
0000
,  // measure 23
0010
0000
0000
0000
,  // measure 24
1001
0000
0000
0000
,  // measure 25
0110
0000
0000
0000
,  // measure 26
0010
0000
0000
0000
,  // measure 27
0010
0000
0000
0000
,  // measure 28
0001
0000
0000
0000
,  // measure 29
1000
0000
0000
0000
,  // measure 30
0010
0000
0000
0000
,  // measure 31
0100
0000
0000
0000
,  // measure 32
0100
0000
0000
0000
,  // measure 33
0010
0000
0000
0000
,  // measure 34
1000
0000
0000
0000
,  // measure 35
0001
0000
0000
0000
,  // measure 36
1000
0000
0000
0000
,  // measure 37
0100
0000
0000
0000
,  // measure 38
0100
0000
0000
0000
,  // measure 39
0010
0000
0000
0000
,  // measure 40
0100
0000
0000
0000
,  // measure 41
0001
0000
0000
0000
,  // measure 42
0001
0000
0000
0000
,  // measure 43
1000
0000
0000
0000
,  // measure 44
1001
0000
0000
0000
,  // measure 45
0110
0000
0000
0000
;
