#TITLE:Juicy;
#SUBTITLE:;
#ARTIST:kors k Lovers DJ Yoshitaka;
#TITLETRANSLIT:;
#SUBTITLETRANSLIT:;
#ARTISTTRANSLIT:;
#GENRE:;
#CREDIT:Chewi☆;
#MENUCOLOR:;
#METERTYPE:DDR X;
#BANNER:Juicy.png;
#BACKGROUND:Juicy-bg.png;
#LYRICSPATH:;
#CDTITLE:;
#MUSIC:Juicy.mp3;
#OFFSET:-0.406;
#SAMPLESTART:61.125;
#SAMPLELENGTH:15.000;
#SELECTABLE:YES;
#LISTSORT:;
#DISPLAYBPM:125.000;
#BPMS:0.000=125.000;
#STOPS:;
#BGCHANGES:;
#ATTACKS:;

//---------------dance-single - Chewi----------------
#NOTES:
     dance-single:
     Chewi:
     Beginner:
     2:
     0.121,0.160,0.010,0.157,0.000:
0000
0000
0000
0000
,
0000
0000
0000
0000
,
0000
0000
0000
0000
,
0000
0000
0000
0000
,
2000
0000
0000
3000
,
0002
0000
0000
0003
,
2000
0000
0000
3000
,
0002
0000
0000
0003
,
0010
0000
0100
0000
,
1000
0000
0001
0000
,
0100
0000
0010
0000
,
0001
0000
1000
0000
,
0010
0000
0100
0000
,
0001
0000
1000
0000
,
0100
0000
0010
0000
,
0010
0000
0100
0000
,
0200
0000
0000
0300
,
0100
0000
0000
0000
,
0020
0000
0000
0030
,
0010
0000
0000
0000
,
2000
0000
0000
3000
,
1000
0000
0000
0000
,
0002
0000
0000
0003
,
0001
0000
0000
0000
,
1000
0000
0100
0000
,
0020
0000
0000
0030
,
0010
0000
0001
0000
,
2000
0000
0000
3000
,
1000
1000
1000
0000
,
0001
0001
0001
0000
,
0100
0100
0100
0000
,
0010
0010
0010
0000
,
0010
0000
0100
0000
,
0020
0000
0000
0030
,
0010
0000
0010
0000
,
0100
0000
0100
0000
,
0100
0000
0010
0000
,
0200
0000
0000
0300
,
0100
0000
0000
0000
,
0020
0000
0000
0030
,
0020
0000
0000
0030
,
2000
0000
0000
3000
,
2000
0000
0000
3000
,
1000
0000
0100
0000
,
0100
0000
0010
0000
,
0010
0000
0001
0000
,
1000
0000
1001
0000
;

//---------------dance-single - Chewi----------------
#NOTES:
     dance-single:
     Chewi:
     Easy:
     4:
     0.200,0.252,0.049,0.315,0.000:
0000
0000
0000
0000
,
0000
0000
0000
0000
,
0000
0000
0000
0000
,
0000
0000
0000
0000
,
2000
0000
0000
3001
,
0002
0000
0000
1003
,
2000
0000
0000
3001
,
0002
0000
0000
1003
,
0010
0001
0100
0000
,
1000
0010
0001
0000
,
0100
1000
0010
0000
,
0001
0100
1000
0000
,
0010
1000
0100
0000
,
0001
0010
1000
0000
,
0100
0001
0010
0000
,
0010
0110
0100
0000
,
0200
0300
0200
0300
,
0100
0100
0100
0000
,
0020
0030
0020
0030
,
0010
0010
0010
0000
,
2000
3000
0002
0003
,
1000
0001
1001
0000
,
0002
0003
2000
3000
,
0001
1000
1001
0000
,
2000
0000
3200
0000
,
0320
0000
0000
0000
,
0032
0000
0203
0000
,
0320
0000
0000
0000
,
2030
0001
0002
3003
,
0002
1000
2000
3003
,
0200
0010
0020
0330
,
0020
0100
0200
0330
,
0010
1000
0100
0001
,
0020
0000
0000
0030
,
0010
0100
0010
0000
,
0100
0010
0100
0000
,
0100
0001
0010
1000
,
0200
0000
0000
0300
,
0100
0010
0100
0000
,
0020
0000
0000
0000
,
0230
0000
0000
0000
,
2300
0000
0000
0000
,
3020
0000
0000
0000
,
0130
0100
0100
0000
,
0100
0010
0110
0000
,
0010
0010
0010
0000
,
1000
0001
1001
0000
;

//---------------dance-single - Chewi----------------
#NOTES:
     dance-single:
     Chewi:
     Medium:
     7:
     0.302,0.322,0.167,0.226,0.010:
0000
0000
0000
0000
,
0000
0000
0000
0000
,
0000
0000
0000
0000
,
0000
0000
0000
0000
,
2000
0000
3001
0000
1000
0001
1000
0000
,
0002
0000
1003
0000
0001
1000
0001
0000
,
2000
0000
3001
0000
1000
0001
1000
0000
,
1000
0100
0010
0001
0010
0000
0011
0000
,
2000
0100
0001
3100
,
0100
0010
0001
0000
0001
0000
0101
0000
,
0002
0100
0010
0103
,
0100
0010
1000
0000
0010
0000
1010
0000
,
2000
0001
0100
3001
,
0010
0001
0100
0000
0001
0000
0101
0000
,
0200
0010
0001
0310
,
1010
1010
1010
0000
,
1000
1000
0000
0000
0001
0001
0000
0000
,
1000
1000
0000
0000
0001
0000
0010
0000
,
0100
0100
0000
0000
0010
0010
0000
0000
,
0100
0100
0000
0000
0010
0000
0001
0000
,
1000
1000
0000
0000
0010
0010
0000
0000
,
1000
1000
0000
0000
0010
0000
0100
0000
,
0001
0001
0000
0000
1000
1000
0000
0000
,
0100
0100
0000
0000
0010
0000
0100
0000
,
1000
0100
0001
0010
,
1000
0000
0100
0000
1000
0100
1000
0000
,
0010
0001
0100
1000
,
0010
0000
0001
0000
0010
0001
0010
0000
,
0010
0000
0100
0000
0001
1000
0100
0000
,
0010
0100
1000
1100
,
1000
0000
0001
0000
1000
0001
0100
0000
,
0010
0100
0001
0101
,
2000
3002
2003
3002
,
0013
0000
0000
0010
0000
0000
0010
0000
0000
0000
0000
0000
0010
0000
0100
0000
,
0010
0101
0010
1100
,
0002
0103
2000
3100
,
0002
0023
0230
2300
,
3100
0000
0000
0100
0000
0000
0100
0000
0000
0000
0000
0000
0010
0000
0010
0000
,
0010
0011
0100
1100
,
2000
0000
0000
0000
,
3020
0000
0000
0000
,
0230
0000
0000
0000
,
0302
0000
0000
0000
,
2003
0000
3001
0000
0001
1000
0001
0000
,
1000
1100
0001
0101
,
0200
0000
0310
0000
0010
0100
0010
0000
,
1000
1010
0001
0011
;

//---------------dance-single - Chewi----------------
#NOTES:
     dance-single:
     Chewi:
     Hard:
     10:
     0.357,0.391,0.069,0.453,0.025: // measure 1
0000
0000
0000
0000
,  // measure 2
0000
0000
0000
0000
,  // measure 3
0000
0000
0000
0000
,  // measure 4
0000
0000
0000
0000
,  // measure 5
0100
0000
0000
0010
0000
0000
0001
0000
0100
0000
0001
0000
0010
0000
0100
0000
,  // measure 6
1000
0000
0000
0010
0000
0000
1000
0000
0100
0000
0010
0000
0001
0000
0010
0000
,  // measure 7
0001
0000
0000
1000
0000
0000
0010
0000
1000
0000
0010
0000
1000
0000
0100
0000
,  // measure 8
0010
0001
1000
0001
1001
0000
0110
0000
,  // measure 9
1000
0010
1000
0000
0002
0000
1003
0000
,  // measure 10
1000
0100
0010
0000
0002
0000
0013
0000
,  // measure 11
1000
0100
1000
0000
0002
0000
0103
0000
,  // measure 12
0001
1000
0100
0000
1000
0100
1000
0000
,  // measure 13
0010
0100
0001
0000
0200
0000
0310
0000
,  // measure 14
0010
0100
0001
0000
2000
0000
3100
0000
,  // measure 15
0001
1000
0100
0000
1000
0100
0010
0000
,  // measure 16
0011
1100
0011
0000
,  // measure 17
0002
0020
0033
0000
2000
0200
3300
0000
,  // measure 18
0002
0200
0303
0000
0010
1000
0100
0010
,  // measure 19
0002
0200
0303
0000
0020
2000
3030
0000
,  // measure 20
2000
0200
3300
0000
0100
0010
0001
0100
,  // measure 21
0020
2000
3030
0000
0002
0020
0033
0000
,  // measure 22
0200
2000
3300
0000
0010
0100
0001
0010
,  // measure 23
0002
2000
3003
0000
0020
0200
0330
0000
,  // measure 24
0020
2000
3030
0000
0100
0010
0001
1000
,  // measure 25
0001
0010
0100
0000
2000
0000
3100
0000
,  // measure 26
1000
0100
0001
0000
0020
0000
1030
0000
,  // measure 27
0100
0010
0001
0000
0002
0000
0103
0000
,  // measure 28
0100
0001
0010
0000
2000
0000
3100
0000
,  // measure 29
0100
0010
0100
0000
2000
0000
3001
0000
,  // measure 30
0010
0100
1000
0000
0020
0000
0130
0000
,  // measure 31
0001
0010
0100
0000
1000
0001
1000
0002
,  // measure 32
0000
0000
0000
0000
0003
1000
0100
0010
,  // measure 33
0002
0103
2000
3010
,  // measure 34
0001
0000
0000
1000
0000
0000
0001
0000
0000
0000
0000
0000
1000
0000
0000
0000
,  // measure 35
0001
0010
0100
1100
,  // measure 36
1000
0000
0010
0000
0100
0001
0010
0100
,  // measure 37
2000
3010
0200
0301
,  // measure 38
1000
0000
0000
0001
0000
0000
1000
0000
0000
0000
0100
0000
0100
0000
0010
0000
,  // measure 39
0010
0001
1000
1010
,  // measure 40
2000
0000
0000
0000
,  // measure 41
3200
0000
0000
0000
,  // measure 42
0302
0000
0000
0000
,  // measure 43
0023
0000
0000
0000
,  // measure 44
2030
0000
3001
0000
0001
1000
0001
0000
,  // measure 45
1000
0100
0001
0010
,  // measure 46
2000
0000
3100
0000
0010
0100
1000
0000
,  // measure 47
0010
0001
0100
1000
;
