#TITLE:JAMES BROWN IS DEAD;
#SUBTITLE:;
#ARTIST:L.A. Style;
#TITLETRANSLIT:;
#SUBTITLETRANSLIT:;
#ARTISTTRANSLIT:;
#GENRE:;
#CREDIT:xRGTMx;
#MENUCOLOR:;
#METERTYPE:DDR;
#BANNER:JAMES BROWN IS DEAD.png;
#BACKGROUND:JAMES BROWN IS DEAD-bg.png;
#LYRICSPATH:;
#CDTITLE:;
#MUSIC:JAMES BROWN IS DEAD.mp3;
#OFFSET:-0.080;
#SAMPLESTART:56.940;
#SAMPLELENGTH:12.000;
#SELECTABLE:YES;
#LISTSORT:;
#BPMS:0.000=130.780,10.000=32.700,12.000=130.800;
#STOPS:10.000=2.752
,112.000=1.835
;
#BGCHANGES:;
#ATTACKS:;

//---------------dance-single - xRGTMx----------------
#NOTES:
     dance-single:
     xRGTMx:
     Easy:
     5:
     0.215,0.262,0.318,0.018,0.005: // measure 1
0000
0000
0000
0000
,  // measure 2
0000
0000
0000
0000
,  // measure 3
0000
0000
0000
0000
,  // measure 4
0100
0000
0100
0000
,  // measure 5
0010
0000
0010
0000
,  // measure 6
1000
0000
1000
0000
,  // measure 7
0001
0000
0001
0000
,  // measure 8
0100
0000
0010
0000
,  // measure 9
1000
0000
0001
0000
,  // measure 10
1000
1000
0001
0000
,  // measure 11
0001
0001
1000
0000
,  // measure 12
1000
0001
1000
0000
,  // measure 13
0001
1000
0001
0000
,  // measure 14
1000
1000
0001
0000
,  // measure 15
0001
0001
1000
0000
,  // measure 16
0001
1000
0001
0000
,  // measure 17
1000
0001
1000
0000
,  // measure 18
1001
1001
0000
0000
,  // measure 19
0110
0110
0000
0000
,  // measure 20
1001
1001
0000
0000
,  // measure 21
0110
0110
0000
0000
,  // measure 22
1100
1100
0000
0000
,  // measure 23
0011
0011
0000
0000
,  // measure 24
0101
0101
0000
0000
,  // measure 25
1010
1010
0000
0000
,  // measure 26
1000
0000
0000
0000
,  // measure 27
0001
0000
0000
0000
,  // measure 28
0110
0000
0000
0000
,  // measure 29
1001
1000
0000
0000
0000
0000
0000
0000
0000
0000
0000
0000
0000
0000
0000
0000
1000
0000
0000
0000
0000
0000
0000
0000
0000
0000
0000
0000
0000
0000
0000
0000
1000
0000
0000
0000
0000
0000
0000
0000
0000
0000
0000
0000
0000
0000
0000
0000
1000
0000
0000
0000
0000
0000
0000
0000
0000
0000
0000
0000
0000
0000
0000
0000
,  // measure 30
0001
0001
0001
0001
,  // measure 31
1000
1000
1000
1000
,  // measure 32
0001
0001
0001
0001
,  // measure 33
0100
0100
0100
0100
,  // measure 34
0010
0010
0010
0010
,  // measure 35
0100
0100
0100
0100
,  // measure 36
0010
0010
0010
0010
,  // measure 37
0000
1001
0000
0110
,  // measure 38
0000
1001
0000
0110
,  // measure 39
0000
1100
0000
0101
,  // measure 40
0000
1100
0000
0101
,  // measure 41
0000
1001
0000
0110
,  // measure 42
0000
1001
0000
0110
,  // measure 43
0000
1010
0000
0011
,  // measure 44
0000
1010
0000
0011
,  // measure 45
1000
1000
0001
0000
,  // measure 46
0001
0001
1000
0000
,  // measure 47
1000
0001
1000
0000
,  // measure 48
0001
1000
0001
0000
,  // measure 49
1000
1000
0001
0000
,  // measure 50
0001
0001
1000
0000
,  // measure 51
0001
1000
0001
0000
,  // measure 52
1000
0001
1000
0000
,  // measure 53
2002
0000
3003
0000
;

//---------------dance-single - xRGTMx----------------
#NOTES:
     dance-single:
     xRGTMx:
     Hard:
     13:
     0.567,0.625,0.445,0.145,0.304: // measure 1
0000
0000
0000
0000
,  // measure 2
0000
0000
0000
0000
,  // measure 3
0000
0000
0000
0000
0000
0000
0000
0000
0000
0000
0000
0000
0000
0000
0000
0000
0000
0000
0000
0000
0000
0000
0000
0000
0000
0000
0000
0000
0000
0001
0010
0100
,  // measure 4
1000
0000
0000
0000
1000
0000
0000
0000
0100
0000
0000
0000
0100
0000
0100
0010
,  // measure 5
0001
0000
0001
0000
0001
1000
0010
1000
,  // measure 6
0001
0000
0000
0000
0001
0000
0000
0000
0100
0000
0000
0000
0100
0000
0100
0010
,  // measure 7
1000
0000
1000
0000
0001
0020
0000
0130
,  // measure 8
1000
0000
0000
0000
1000
0000
0000
0000
0100
0000
0000
0000
0100
0000
0010
0001
,  // measure 9
0100
0000
0100
0000
0100
0010
1000
0001
,  // measure 10
0010
0000
0000
0000
1100
0000
0000
0000
0011
0000
0000
0000
0100
0000
0010
1000
,  // measure 11
0100
0000
0011
0000
0100
1000
0010
0100
,  // measure 12
0001
0000
0000
0000
1100
0000
0000
0000
0011
0000
0000
0000
0101
0000
0001
1000
,  // measure 13
0100
0000
0011
0000
1100
0100
0010
0100
,  // measure 14
1000
0000
0100
0010
0000
0000
0001
0000
0100
0000
0010
1000
0000
0000
0001
0000
,  // measure 15
0010
0000
0100
1000
0000
0000
0010
0000
0100
0000
0001
0000
1000
0000
0100
0000
,  // measure 16
0010
0000
0100
1000
0000
0000
0010
0000
0100
0000
0001
0010
0000
0000
0100
0000
,  // measure 17
1000
0000
0001
0100
0000
0000
0010
0000
1000
0100
0010
0100
0010
0001
1000
0000
,  // measure 18
1100
0000
0010
0000
0101
0000
0000
0000
0010
1000
0100
0001
0100
0000
0000
0000
,  // measure 19
1100
0000
0010
0000
0101
0000
0000
0000
0010
1000
0100
0001
0100
0000
0000
0000
,  // measure 20
1100
0000
0010
0000
0101
0000
0000
0000
0010
1000
0100
0001
0100
0000
0000
0000
,  // measure 21
1100
0000
0010
0000
0101
0000
0000
0000
0010
1000
0100
0001
0100
0000
0000
0000
,  // measure 22
1100
0001
1100
0001
1100
0010
0101
0010
,  // measure 23
1100
0001
1100
0001
1100
0010
0101
0010
,  // measure 24
1100
0001
1010
0001
1100
0010
0101
0010
,  // measure 25
1100
0001
0110
1000
0002
0000
0000
0000
,  // measure 26
1003
0000
0000
0000
0100
0000
0000
0001
0000
0000
0100
0000
1000
0000
0001
0000
,  // measure 27
0100
0000
0000
0000
1000
0000
0000
0100
0000
0000
0001
0000
1000
0000
0100
0000
,  // measure 28
0010
0000
0000
0000
0001
0000
0000
1000
0000
0000
0010
0000
1000
0000
0001
0000
,  // measure 29
1001
1000
0000
0000
0000
0000
0000
0000
0000
0000
0000
0000
0100
0000
0000
0000
0010
0000
0000
0000
0000
0000
0000
0000
0100
0000
0000
0000
1000
0000
0000
0000
0000
0000
0000
0000
0001
0000
0000
0000
0100
0000
0000
0000
0000
0000
0000
0000
0010
0000
0000
0000
0000
0000
0000
0000
0100
0000
0000
0000
0000
0000
0000
0000
,  // measure 30
0001
0000
0000
1000
0100
0000
0001
0100
0000
1000
0010
0000
0100
0000
0010
0000
,  // measure 31
0100
0000
0000
0001
0010
0000
0100
1000
0000
0100
0010
0000
0100
0000
1000
0000
,  // measure 32
0001
0000
0000
0100
0010
0000
1000
0100
0000
0001
0100
0000
1100
0000
1100
0000
,  // measure 33
1000
0000
0000
0010
0100
0000
0010
1000
0000
0001
0010
0000
0100
0000
0010
0000
,  // measure 34
0001
0000
0000
1000
0010
0000
0001
0010
0000
1000
0100
0000
0010
0000
0100
0000
,  // measure 35
0010
0000
0000
0001
0100
0000
0010
1000
0000
0010
0100
0000
0010
0000
1000
0000
,  // measure 36
0001
0000
0000
0010
0100
0000
1000
0010
0000
0001
0010
0000
1010
0000
1010
0000
,  // measure 37
2000
0100
0010
0001
0100
0010
0001
0100
,  // measure 38
3002
0100
0010
1000
0100
0010
1000
0100
,  // measure 39
2003
0010
0100
0001
0010
0100
0001
0010
,  // measure 40
3002
0010
0100
1000
0010
0100
1000
0010
,  // measure 41
2003
0100
0001
0100
3002
0100
1000
0100
,  // measure 42
2003
0100
0001
0100
3002
0100
1000
0100
,  // measure 43
2003
0010
0001
0010
3002
0010
1000
0010
,  // measure 44
2003
0010
0001
0010
3002
0010
1000
0010
,  // measure 45
1003
0000
0000
0000
0110
0000
0000
0000
0011
0000
0000
0000
0110
0000
0010
0100
,  // measure 46
1000
0000
1010
0000
0101
0100
0001
1000
,  // measure 47
0100
0000
0000
0000
0011
0000
0000
0000
1100
0000
0000
0000
1010
0000
0010
0100
,  // measure 48
0001
0000
1100
0000
0101
0100
0001
1000
,  // measure 49
0100
0000
0000
0001
0100
0000
0000
1000
0100
0000
0000
0001
0100
0000
1000
0010
,  // measure 50
0100
0000
0000
0001
0100
0000
0000
1000
0100
0000
0001
0000
1100
0000
0011
0000
,  // measure 51
1000
0000
0000
0010
0100
0000
0000
0001
0010
0000
0000
0100
1000
0000
0010
0100
,  // measure 52
0001
0000
0000
1000
0100
0000
0000
0001
0100
0000
1000
0000
0010
0000
0110
0000
,  // measure 53
2002
0000
0000
0000
,  // measure 54
3003
0000
0000
0000
;

//---------------dance-single - xRGTMx----------------
#NOTES:
     dance-single:
     xRGTMx:
     Medium:
     8:
     0.315,0.313,0.091,0.145,0.005: // measure 1
0000
0000
0000
0000
,  // measure 2
0000
0000
0000
0000
,  // measure 3
0000
0000
0000
0000
,  // measure 4
1000
1000
0001
0001
,  // measure 5
0100
0000
0100
0000
0010
0100
0010
0100
,  // measure 6
0001
0001
1000
1000
,  // measure 7
0100
0000
0100
0000
0100
0010
0000
0001
,  // measure 8
1000
1000
0001
0001
,  // measure 9
0100
0000
0100
0000
0100
0010
0100
0010
,  // measure 10
0100
0001
1000
0100
,  // measure 11
0010
0000
0100
0000
1000
0010
0100
0001
,  // measure 12
1000
0100
0001
0100
,  // measure 13
1000
0000
0001
0000
0100
0010
1000
0001
,  // measure 14
0010
0100
0010
0100
,  // measure 15
1000
0000
0001
0000
1000
0010
1000
0010
,  // measure 16
0100
0001
1000
0100
,  // measure 17
0001
0000
0100
0000
1000
0001
0100
0001
,  // measure 18
1000
0010
1000
0010
,  // measure 19
0100
0000
0001
0000
0100
0001
0100
0001
,  // measure 20
0010
0001
1000
0100
,  // measure 21
0001
0000
0100
0000
1000
0001
0010
0100
,  // measure 22
1000
0010
1000
0010
,  // measure 23
0001
0000
0010
0000
0001
0010
1000
0010
,  // measure 24
0001
0010
1000
0100
,  // measure 25
0002
2000
0000
3003
,  // measure 26
1000
0000
1000
0000
,  // measure 27
0001
0000
0001
0000
,  // measure 28
0100
0000
0100
0000
,  // measure 29
1001
1000
0000
0000
0000
0000
0000
0000
0000
0000
0000
0000
1000
0000
0000
0000
0000
0000
0000
0000
0000
0000
0000
0000
0001
0000
0000
0000
0000
0000
0000
0000
0000
0000
0000
0000
0001
0000
0000
0000
0000
0000
0000
0000
0000
0000
0000
0000
,  // measure 30
0100
0100
0010
0010
,  // measure 31
1100
0010
0101
0010
,  // measure 32
1100
0010
0101
0010
,  // measure 33
1000
1000
0100
0100
,  // measure 34
0001
0001
0100
0100
,  // measure 35
1100
0010
0101
0010
,  // measure 36
1100
0010
0101
0010
,  // measure 37
2000
0100
0001
0010
,  // measure 38
3002
0100
1000
0010
,  // measure 39
2003
0010
0001
0100
,  // measure 40
3002
0010
1000
0103
,  // measure 41
2000
0010
3002
0010
,  // measure 42
2003
0010
3002
0010
,  // measure 43
2003
0100
3002
0100
,  // measure 44
2003
0100
3002
0100
,  // measure 45
1003
0100
0001
0100
,  // measure 46
1000
0000
0001
0000
1000
0010
0100
0001
,  // measure 47
1000
0100
0001
0100
,  // measure 48
1000
0000
0010
0000
0100
0001
1000
0010
,  // measure 49
0100
0001
0010
0100
,  // measure 50
0001
0000
0100
0000
1000
0100
0001
0100
,  // measure 51
1000
0010
0100
0001
,  // measure 52
1000
0000
0100
0000
0010
0100
1000
0001
,  // measure 53
2002
0000
0000
0000
,  // measure 54
3003
0000
0000
0000
;

//---------------dance-single - xRGTMx----------------
#NOTES:
     dance-single:
     xRGTMx:
     Beginner:
     1:
     0.066,0.094,0.009,0.000,0.000:
0000
0000
0000
0000
,
0000
0000
0000
0000
,
0000
0000
0000
0000
,
1000
0000
0000
0000
,
1000
0000
0000
0000
,
0001
0000
0000
0000
,
0001
0000
0000
0000
,
0100
0000
0000
0000
,
0100
0000
0000
0000
,
0010
0000
0000
0000
,
0010
0000
0000
0000
,
1000
0000
0000
0000
,
0100
0000
0000
0000
,
0010
0000
0000
0000
,
0001
0000
0000
0000
,
1000
0000
0000
0000
,
0100
0000
0000
0000
,
0010
0000
0000
0000
,
0001
0000
0000
0000
,
1000
0000
0000
0000
,
0010
0000
0000
0000
,
0100
0000
0000
0000
,
0001
0000
0000
0000
,
1000
0000
0000
0000
,
0010
0000
0000
0000
,
0100
0000
0000
0000
,
0001
0000
0000
0000
,
1000
0000
0000
0000
,
0001
0000
0000
0000
,
1000
0000
0000
0000
,
0100
0000
0000
0000
,
0010
0000
0000
0000
,
0100
0000
0000
0000
,
1000
0000
0000
0000
,
0010
0000
0000
0000
,
0100
0000
0000
0000
,
0001
0000
0000
0000
,
0010
0000
0000
0000
,
0100
0000
0000
0000
,
1000
0000
0000
0000
,
0001
0000
0000
0000
,
0100
0000
0000
0000
,
0010
0000
0000
0000
,
1000
0000
0000
0000
,
0100
0000
0000
0000
,
0010
0000
0000
0000
,
0001
0000
0000
0000
,
0100
0000
0000
0000
,
0010
0000
0000
0000
,
1000
0000
0000
0000
,
0001
0000
0000
0000
,
1000
0000
0000
0000
,
1001
0000
0000
0000
;
