#TITLE:JUICY LOVE;
#SUBTITLE:;
#ARTIST:Happiness;
#TITLETRANSLIT:;
#SUBTITLETRANSLIT:;
#ARTISTTRANSLIT:;
#GENRE:J-Pop;
#CREDIT:chewi;
#BANNER:JUICY LOVE.png;
#BACKGROUND:JUICY LOVE-bg.png;
#LYRICSPATH:;
#CDTITLE:cdtitle.png;
#MUSIC:JUICY LOVE.ogg;
#OFFSET:-0.094358;
#SAMPLESTART:53.721001;
#SAMPLELENGTH:15.000000;
#SELECTABLE:YES;
#BPMS:0.000000=123.000000
;
#STOPS:
;
#BGCHANGES:-0.188=JUICY LOVE.avi=1.000=1=0=0=StretchNoLoop==CrossFade==,
99999=-nosongbg-=1.000=0=0=0 // don't automatically add -songbackground-
;
#KEYSOUNDS:;
#ATTACKS:;

//---------------dance-single - ----------------
#NOTES:
     dance-single:
     :
     Beginner:
     1:
     0.090321,0.146415,0.011092,0.077644,0.000000,49.000000,1.000000,7.000000,0.000000,0.000000,0.000000,0.090321,0.146415,0.011092,0.077644,0.000000,49.000000,1.000000,7.000000,0.000000,0.000000,0.000000:
// measure 0
0000
0000
0000
0000
,  // measure 1
0000
0000
0000
0000
,  // measure 2
0000
0000
0000
0000
,  // measure 3
0000
0000
0000
0000
,  // measure 4
1000
0000
0000
0000
,  // measure 5
0001
0000
0000
0000
,  // measure 6
1000
0000
1000
0000
,  // measure 7
1000
0000
1000
0000
,  // measure 8
0002
0000
0000
0003
,  // measure 9
0001
0000
0000
0000
,  // measure 10
0010
0000
0000
0000
,  // measure 11
1000
0000
0000
0000
,  // measure 12
0100
0000
0000
0000
,  // measure 13
0001
0000
0000
0000
,  // measure 14
0010
0000
0000
0000
,  // measure 15
1000
0000
0000
0000
,  // measure 16
0010
0000
0000
0000
,  // measure 17
0001
0000
0000
0000
,  // measure 18
0001
0000
0000
0000
,  // measure 19
1000
0000
0000
0000
,  // measure 20
1000
0000
0000
0000
,  // measure 21
0100
0000
0000
0000
,  // measure 22
0100
0000
0000
0000
,  // measure 23
0010
0000
0000
0000
,  // measure 24
0010
0000
0000
0000
,  // measure 25
1000
0000
0000
0000
,  // measure 26
0001
0000
0000
0000
,  // measure 27
1001
0000
0000
0000
,  // measure 28
2000
0000
0000
3000
,  // measure 29
1000
0000
0001
0000
,  // measure 30
0002
0000
0000
0003
,  // measure 31
0001
0000
0001
0000
,  // measure 32
0200
0000
0000
0300
,  // measure 33
0100
0000
0100
0000
,  // measure 34
0020
0000
0000
0030
,  // measure 35
0010
0000
0100
0000
,  // measure 36
2000
0000
0000
3000
,  // measure 37
1000
0000
1000
0000
,  // measure 38
0002
0000
0000
0003
,  // measure 39
0001
0000
0001
0000
,  // measure 40
0001
0000
0000
0000
,  // measure 41
0100
0000
0000
0000
,  // measure 42
1000
0000
0000
0000
,  // measure 43
0010
0000
0000
0000
,  // measure 44
0010
0000
0000
0000
;

//---------------dance-single - ----------------
#NOTES:
     dance-single:
     :
     Easy:
     4:
     0.152119,0.219622,0.055460,0.166380,0.000000,76.000000,5.000000,15.000000,0.000000,0.000000,0.000000,0.152119,0.219622,0.055460,0.166380,0.000000,76.000000,5.000000,15.000000,0.000000,0.000000,0.000000:
0000
0000
0000
0000
,
0000
0000
0000
0000
,
0000
0000
0000
0000
,
0000
0000
0000
0000
,
2000
0000
0000
3000
,
0002
0000
0000
0003
,
0100
0000
0100
0000
,
0100
0100
0100
0100
,
0020
0000
0000
0030
,
1000
0000
1000
0000
,
2000
0000
0000
3000
,
0001
0000
0001
0000
,
0002
0000
0000
0003
,
0010
0000
0010
0000
,
0100
0000
0100
0000
,
1000
0000
1000
0000
,
0001
0000
0001
0000
,
0100
0000
0100
0000
,
0200
0000
0000
0300
,
0010
0000
0010
0000
,
0010
0000
0010
0000
,
1000
0000
0001
0000
,
2000
0000
0000
3000
,
0001
0000
0010
0000
,
0100
0000
1000
0000
,
1000
0000
0100
0000
,
0010
0000
0001
0000
,
0000
0000
0000
0000
,
2000
3000
2000
3000
,
1000
0001
1000
0000
,
0002
0003
0002
0003
,
0001
1000
0001
0000
,
0200
0300
0200
0300
,
0100
0010
0100
0000
,
0020
0030
0020
0030
,
0010
0100
0010
0000
,
0110
0000
0000
0000
,
1001
0000
0000
0000
,
0110
0000
0000
0000
,
1001
0000
0000
0000
,
1000
0000
1000
0000
,
0001
1000
0001
0000
,
1000
0000
1000
0000
,
0001
1000
0001
0000
,
1001
0000
0000
0000
;

//---------------dance-single - ----------------
#NOTES:
     dance-single:
     :
     Medium:
     6:
     0.239270,0.317231,0.066552,0.110920,0.000000,135.000000,6.000000,10.000000,0.000000,0.000000,0.000000,0.239270,0.317231,0.066552,0.110920,0.000000,135.000000,6.000000,10.000000,0.000000,0.000000,0.000000:
0000
0000
0000
0000
,
0000
0000
0000
0000
,
0000
0000
0000
0000
,
0000
0000
0000
0000
,
2000
0000
0000
3000
,
0002
0000
0000
0003
,
2000
3001
0002
1003
,
1000
0001
1000
0001
,
1000
0001
1000
0001
2000
0000
0000
0000
,
3001
0100
1000
0010
,
0001
0010
1000
0000
,
0001
0010
1000
0100
,
0001
0010
1000
0000
,
1000
0010
0001
0100
,
1000
0010
0001
0000
,
0001
0010
1000
0100
,
0001
0100
1000
0000
,
2010
0000
0001
0000
,
3100
0100
0010
0010
,
0012
0000
1000
0000
,
0103
0100
0010
0010
,
2001
0000
0100
0000
,
3010
0010
1000
1000
,
1002
0000
0010
0000
,
0103
0001
0100
0001
,
1001
0000
0000
1000
0000
0000
0000
0001
,
0000
1000
0100
0010
,
0001
0000
0000
0000
,
1000
0100
1000
0100
,
1000
0001
0100
0000
0001
0000
0000
0000
,
0010
0000
0010
0100
0010
0000
0000
0000
,
0100
0000
0100
0010
0100
0000
0000
0000
,
0010
0001
1000
0100
,
1000
0001
0100
0000
0001
0000
0000
0000
,
1000
0000
1000
0001
1000
0000
0000
0000
,
0001
0000
0001
1000
0001
0000
0000
0000
,
0000
1000
0000
0000
1000
0000
0100
0000
,
0000
0001
0000
0000
0001
0000
0100
0000
,
0000
0100
0000
0000
0100
0000
0010
0000
,
1001
0000
1000
0100
,
0010
0001
1000
0100
,
0001
0010
0100
0001
,
0010
0100
1000
0010
,
2000
0000
0000
0000
0001
0001
3001
0000
,
0001
0000
0000
0000
;

//---------------dance-single - ----------------
#NOTES:
     dance-single:
     :
     Hard:
     10:
     0.369205,0.437996,0.144196,0.199656,0.099828,202.000000,13.000000,18.000000,0.000000,0.000000,0.000000,0.369205,0.437996,0.144196,0.199656,0.099828,202.000000,13.000000,18.000000,0.000000,0.000000,0.000000:
0000
0000
0000
0000
,
0000
0000
0000
0000
,
0000
0000
0000
0000
,
0000
0000
0000
0000
,
1000
0100
0001
0010
,
1000
0010
1000
0010
,
0001
0100
1000
0010
,
0001
0010
0001
0010
,
1000
0010
1000
0010
2000
0000
0000
0000
,
3001
0000
1001
0000
1000
0100
0010
0000
,
0002
0023
0230
2300
,
3010
0000
1010
0000
1000
0010
1000
0000
,
0020
0230
0302
2003
,
3001
0000
0101
0000
1000
0100
0010
0000
,
0002
2003
3200
2300
,
3001
0000
1001
0000
1000
0001
0100
0000
,
0020
2030
3002
0203
,
0301
0100
0001
0000
0100
0001
0100
0000
,
0001
0010
0100
1000
0100
0000
1100
0000
,
1000
0100
1000
0000
0100
1000
0100
0000
,
1000
0001
0100
0010
0100
0000
0110
0000
,
0100
0010
0100
0000
0010
0100
0010
0000
,
0100
0001
1000
0010
1000
0000
1010
0000
,
1001
0000
0000
0010
0000
0000
0000
0100
,
0000
1000
0100
0010
0001
1000
0100
0000
,
1001
0000
0000
0100
0000
0010
0000
1000
,
0000
0001
0010
0100
1000
1000
2000
0000
,
0000
0000
0000
0000
3001
1000
0001
1000
,
0010
0000
0000
0010
0000
0000
0100
0001
0100
0000
0000
0010
0000
0000
1000
0001
,
1000
0000
0001
1000
0000
0001
1000
0000
0001
0000
1000
0000
0100
0000
0010
0000
,
0001
0000
1000
0000
0000
0000
0000
0100
,
0000
0000
0000
0000
1000
0010
0100
0001
,
0100
0000
0000
0100
0000
0000
0010
1000
0001
0000
0000
0010
0000
0000
0100
1000
,
0001
0010
0100
1000
0001
1000
0010
0100
,
0001
0000
0010
0100
0000
0000
0000
1000
,
0000
1100
0000
0001
0000
0101
0001
0000
,
0000
0000
1000
0000
0000
0100
0000
0000
1000
0000
0000
0000
0001
0000
0000
0000
,
0000
0000
0001
0000
0000
0010
0000
0000
0001
0000
0000
0000
1000
0000
0000
0000
,
0000
0000
1000
0000
0000
0001
0000
0000
0100
0000
0000
0000
0010
0000
0000
0000
,
0110
0000
0000
0000
0100
0010
1000
0001
,
0010
0000
0000
0010
0000
0000
0001
0010
0001
0000
0000
0100
0000
0000
0010
1000
,
0010
0000
1000
0010
0000
0000
0100
0000
0001
0000
1000
0000
0100
0000
0010
0000
,
0001
0000
0100
0000
0000
0000
0000
0010
,
0000
0000
0000
0000
0000
1000
0000
1001
;
