#TITLE:ジェットコースターラブ;
#SUBTITLE:;
#ARTIST:KARA;
#TITLETRANSLIT:JET COASTER LOVE;
#SUBTITLETRANSLIT:;
#ARTISTTRANSLIT:;
#CREDIT:Chewi☆;
#BANNER:JET COASTER LOVE.png;
#BACKGROUND:JET COASTER LOVE-bg.png;
#LYRICSPATH:;
#CDTITLE:cdtitle.png;
#MUSIC:JET COASTER LOVE.mp3;
#OFFSET:-1.429;
#SAMPLESTART:53.764;
#SAMPLELENGTH:15.000;
#SELECTABLE:YES;
#DISPLAYBPM:127.000;
#BPMS:0.000=127.000;
#STOPS:;
#BGCHANGES:;

//---------------dance-single - Chewi----------------
#NOTES:
     dance-single:
     Chewi:
     Beginner:
     3:
     0.125,0.173,0.066,0.029,0.000: // measure 1
0000
0000
0000
0000
,  // measure 2
0000
0000
0000
0000
,  // measure 3
0000
0000
0000
0000
,  // measure 4
0000
0000
0000
0000
,  // measure 5
1000
0000
0000
0000
,  // measure 6
0001
0000
0000
0000
,  // measure 7
0100
0000
0000
0000
,  // measure 8
0110
0000
0000
0000
,  // measure 9
1000
0000
1000
0000
,  // measure 10
0010
0000
0010
0000
,  // measure 11
0001
0000
0001
0000
,  // measure 12
0100
0000
0100
0000
,  // measure 13
1000
0000
0001
0000
,  // measure 14
1000
0000
1000
0000
,  // measure 15
0001
0000
1000
0000
,  // measure 16
1001
0000
0000
0000
,  // measure 17
0100
0000
0010
0000
,  // measure 18
0100
0000
0100
0000
,  // measure 19
0010
0000
0100
0000
,  // measure 20
0010
0000
0010
0000
,  // measure 21
1001
0000
1000
0000
,  // measure 22
1000
0000
1000
0000
,  // measure 23
1001
0000
0001
0000
,  // measure 24
0001
0000
0001
0000
,  // measure 25
0001
0000
0100
0000
,  // measure 26
1000
0000
1000
0000
,  // measure 27
1000
0000
0100
0000
,  // measure 28
0010
0000
0001
0000
,  // measure 29
0001
0000
0001
0000
,  // measure 30
1000
0000
1000
0000
,  // measure 31
0010
0000
0010
0000
,  // measure 32
1000
0000
0010
0000
,  // measure 33
0001
0000
0001
0000
,  // measure 34
1000
0000
1000
0000
,  // measure 35
1001
0000
0100
0000
,  // measure 36
0010
0000
0010
0000
,  // measure 37
0100
0000
0010
0000
,  // measure 38
0100
0000
0100
0000
,  // measure 39
0100
0000
0010
0000
,  // measure 40
0100
0000
0100
0000
,  // measure 41
0010
0000
0010
0000
,  // measure 42
0100
0000
0100
0000
,  // measure 43
1001
0000
0010
0000
,  // measure 44
1000
0000
0100
0000
,  // measure 45
0020
0000
0000
0030
,  // measure 46
0010
0000
0000
0000
,  // measure 47
0200
0000
0000
0300
,  // measure 48
0100
0000
0000
0000
,  // measure 49
0002
0000
0000
0003
,  // measure 50
0001
0000
0000
0000
,  // measure 51
2000
0000
0000
3000
,  // measure 52
1000
0000
0000
0000
,  // measure 53
1001
0000
0000
0000
,  // measure 54
0100
0000
0000
0000
,  // measure 55
0110
0000
0000
0000
,  // measure 56
0010
0000
0000
0000
,  // measure 57
0010
0000
0000
0000
,  // measure 58
0100
0000
0000
0000
,  // measure 59
1001
0000
0000
0000
,  // measure 60
0100
0000
0000
0000
,  // measure 61
0010
0000
0000
0000
,  // measure 62
0001
0000
0100
0000
,  // measure 63
0100
0000
0100
0000
,  // measure 64
1000
0000
0010
0000
,  // measure 65
1000
0000
0001
0000
,  // measure 66
0001
0000
1000
0000
,  // measure 67
1000
0000
0010
0000
,  // measure 68
0001
0000
1000
0000
,  // measure 69
0001
0000
0000
0000
;

//---------------dance-single - Chewi----------------
#NOTES:
     dance-single:
     Chewi:
     Easy:
     4:
     0.195,0.247,0.095,0.051,0.000: // measure 1
0000
0000
0000
0000
,  // measure 2
0000
0000
0000
0000
,  // measure 3
0000
0000
0000
0000
,  // measure 4
0000
0000
0000
0000
,  // measure 5
2000
0000
0000
3000
,  // measure 6
0002
0000
0000
0003
,  // measure 7
0200
0000
0000
0300
,  // measure 8
0110
0000
0000
0000
,  // measure 9
1000
0001
1000
0000
,  // measure 10
0010
0100
0010
0000
,  // measure 11
0001
1000
0001
0000
,  // measure 12
0100
0010
0100
0000
,  // measure 13
1000
0000
0001
0000
,  // measure 14
1000
0001
1000
0000
,  // measure 15
0001
0000
1000
0000
,  // measure 16
1001
0000
0000
0000
,  // measure 17
0100
0000
0010
0000
,  // measure 18
0100
0010
0100
0000
,  // measure 19
0010
0000
0100
0000
,  // measure 20
0010
0100
0010
0000
,  // measure 21
1001
0000
1000
0000
,  // measure 22
1000
1000
1000
0000
,  // measure 23
1001
0000
0001
0000
,  // measure 24
0001
0001
0001
0000
,  // measure 25
0001
0010
0100
0000
,  // measure 26
1000
1000
1000
0000
,  // measure 27
1000
0000
0100
0000
,  // measure 28
0010
0000
0001
0000
,  // measure 29
0001
0001
0001
0000
,  // measure 30
1000
1000
1000
0000
,  // measure 31
0010
0100
0010
0000
,  // measure 32
1000
0100
0010
0001
,  // measure 33
0001
0001
0001
0000
,  // measure 34
1000
1000
1000
0000
,  // measure 35
1001
0000
0100
0000
,  // measure 36
0010
0010
0010
0000
,  // measure 37
0100
0001
0010
1000
,  // measure 38
0100
0000
0100
0000
,  // measure 39
0100
1000
0010
0001
,  // measure 40
0100
0000
0100
0000
,  // measure 41
0010
0100
0010
0000
,  // measure 42
0100
0010
0100
0000
,  // measure 43
1001
0000
0110
0000
,  // measure 44
1000
0001
0100
0010
,  // measure 45
0020
0000
0000
0030
,  // measure 46
0100
0000
0100
0000
,  // measure 47
0200
0000
0000
0300
,  // measure 48
1000
0000
1001
0000
,  // measure 49
0002
1000
1000
1003
,  // measure 50
1000
0001
1000
0000
,  // measure 51
2000
0001
0001
3001
,  // measure 52
0001
1000
0001
0000
,  // measure 53
1001
0000
0000
0000
,  // measure 54
0100
0100
0100
0000
,  // measure 55
0110
0000
0000
0000
,  // measure 56
0010
0010
0010
0000
,  // measure 57
0010
1000
0100
0000
,  // measure 58
0010
0001
0100
0000
,  // measure 59
1001
0000
0010
0000
,  // measure 60
0100
0010
0100
0000
,  // measure 61
0010
0010
0010
0000
,  // measure 62
0001
0010
0100
1000
,  // measure 63
0100
0100
0100
0000
,  // measure 64
1000
0100
0010
0001
,  // measure 65
1000
0001
1001
0000
,  // measure 66
0001
1000
1001
0000
,  // measure 67
1000
0000
0010
0000
,  // measure 68
0001
0010
1000
0100
,  // measure 69
0001
0000
0000
0000
;

//---------------dance-single - ----------------
#NOTES:
     dance-single:
     :
     Medium:
     7:
     0.319,0.371,0.197,0.102,0.011: // measure 1
0000
0000
0000
0000
,  // measure 2
0000
0000
0000
0000
,  // measure 3
0000
0000
0000
0000
,  // measure 4
0000
0000
0000
0000
,  // measure 5
1000
0000
0000
1000
0000
0000
1000
0000
1000
0000
0000
0000
0000
0000
0000
0000
,  // measure 6
0001
0000
0000
0001
0000
0000
0001
0000
0001
0000
0000
0000
0000
0000
0000
0000
,  // measure 7
0010
0000
0000
0010
0000
0000
0010
0000
0010
0000
0000
0000
0000
0000
0000
0000
,  // measure 8
0110
0000
0000
0000
,  // measure 9
0100
0000
0100
0000
0100
0100
0100
0000
,  // measure 10
0020
0032
0203
2300
,  // measure 11
3010
0010
0100
0001
,  // measure 12
0010
0010
0100
0100
,  // measure 13
1000
0100
0010
0001
,  // measure 14
0001
0100
0010
1000
,  // measure 15
0010
0100
0010
0000
0100
0010
0100
0000
,  // measure 16
1001
0000
0000
0000
,  // measure 17
0001
0100
1000
1100
,  // measure 18
1000
0100
0001
0101
,  // measure 19
0010
0100
0010
0000
0100
0010
0100
0000
,  // measure 20
0020
2030
3020
0032
,  // measure 21
0013
0000
0000
0010
0010
0000
0000
0000
,  // measure 22
1000
1100
0001
0101
,  // measure 23
0100
0000
0000
0100
0100
0000
0000
0000
,  // measure 24
0100
0010
1000
0001
,  // measure 25
1000
0100
1000
0000
0001
0000
0100
0000
,  // measure 26
0001
0100
0001
0000
1000
0000
0100
0010
,  // measure 27
0000
0010
0000
0100
0000
0100
0000
0000
,  // measure 28
0010
0001
0010
0001
0010
0000
0001
0000
,  // measure 29
1000
0100
1001
0000
,  // measure 30
0001
0000
1000
0000
0010
0010
0010
0000
,  // measure 31
0100
0001
0100
0110
,  // measure 32
0010
0000
1000
0000
0001
0001
0001
0000
,  // measure 33
1000
0100
0010
0110
,  // measure 34
0010
0100
1000
1100
,  // measure 35
1000
1000
0000
0001
0000
0001
0000
1000
,  // measure 36
0010
0100
0001
0000
0100
0000
0000
0000
,  // measure 37
0001
0100
0101
0000
,  // measure 38
1000
0000
1000
0000
0001
1000
0010
0000
,  // measure 39
0100
0010
0100
0110
,  // measure 40
0010
0000
1000
0000
1000
0100
0010
0000
,  // measure 41
0001
0010
0110
0000
,  // measure 42
0100
0000
1000
0000
1100
0000
0100
1000
,  // measure 43
0100
0100
0000
0010
0000
0010
0000
0100
,  // measure 44
0001
0100
0010
1000
0001
0000
1000
1000
,  // measure 45
0002
0000
2003
0000
,  // measure 46
3100
0100
0010
0010
,  // measure 47
0200
0000
0320
0000
,  // measure 48
0031
0100
0001
0101
,  // measure 49
0100
0100
0010
0010
,  // measure 50
1000
0010
0100
0101
,  // measure 51
0001
0100
0001
0000
1000
0100
1000
0000
,  // measure 52
1001
0000
0000
0000
,  // measure 53
0010
0000
0000
0000
0010
0010
0000
0010
,  // measure 54
0100
0000
0000
0000
0100
0100
0000
0100
,  // measure 55
0010
1000
1000
1001
,  // measure 56
0001
0010
0100
1000
0100
0000
1000
0000
,  // measure 57
2100
0010
0100
3010
,  // measure 58
0102
0100
0010
0103
,  // measure 59
0101
0000
0000
0011
0000
0000
0000
0000
,  // measure 60
0010
0100
0010
0100
0010
0000
0001
0000
,  // measure 61
1000
0100
0001
1001
,  // measure 62
1000
1000
1000
0000
0010
0000
0100
0000
,  // measure 63
0001
0001
0001
0000
0010
0000
0100
0000
,  // measure 64
1000
0100
0010
0110
,  // measure 65
0100
0100
0100
0000
0010
0000
0001
0000
,  // measure 66
0100
0100
0100
0000
0010
0000
0100
0000
,  // measure 67
0101
0000
0000
1010
0000
1001
0000
0000
,  // measure 68
1000
0000
1000
0001
1000
0000
0001
0001
;

//---------------dance-single - ----------------
#NOTES:
     dance-single:
     :
     Hard:
     11:
     0.469,0.421,0.247,0.000,0.127: // measure 1
0000
0000
0000
0000
,  // measure 2
0000
0000
0000
0000
,  // measure 3
0000
0000
0000
0000
,  // measure 4
0000
0000
0000
0000
,  // measure 5
1000
0000
0000
0010
0000
0000
0100
0000
0001
0000
0000
0010
0000
0000
0100
0000
,  // measure 6
1000
0000
0000
0010
0000
0000
0100
0000
0100
0000
0000
0000
0000
0000
0000
0000
,  // measure 7
0010
0000
0000
1000
0000
0000
0001
0000
0001
0000
0000
0000
0000
0000
0000
0000
,  // measure 8
0000
1000
0001
0000
0000
0000
0000
0000
,  // measure 9
0001
0010
0100
0000
1000
0000
0100
0000
0010
0000
0001
0000
1000
0000
0000
0000
,  // measure 10
0001
0000
0000
0001
1000
0000
0000
1000
0010
0000
0000
0010
0100
0000
0000
0100
,  // measure 11
0001
0010
0100
0000
0100
1000
0010
0000
,  // measure 12
1000
0000
1000
0000
0010
0000
0010
0000
1010
0000
0000
0101
0000
0000
0000
0000
,  // measure 13
0001
0100
0001
0000
1000
0100
1000
0000
,  // measure 14
0001
1000
0010
0100
0001
1000
0100
0000
,  // measure 15
1000
0100
1000
0000
0001
0010
0001
0000
,  // measure 16
0010
0000
0010
0000
0100
0000
0100
0000
0010
0000
0000
0010
0000
0000
0010
0000
,  // measure 17
0001
1000
0010
0000
0100
0001
1000
0000
,  // measure 18
0010
1000
0100
0010
0001
0100
0010
1000
,  // measure 19
0001
0100
0010
0000
1000
0100
0010
0000
,  // measure 20
0001
1000
0010
0100
0001
1000
0100
0010
,  // measure 21
0011
0000
0000
0100
0100
0010
1000
0001
,  // measure 22
1000
0000
0000
1000
0000
0000
1000
0000
0001
0000
0010
0000
0100
0000
1000
0000
,  // measure 23
1010
0000
0000
0010
0010
0000
1000
0010
,  // measure 24
0100
0000
0000
0001
0000
0000
0100
0000
0010
0000
1000
0000
0001
0000
0010
0000
,  // measure 25
0100
1000
0010
1000
0100
0000
1100
0000
,  // measure 26
0010
0001
0100
0001
0010
0000
0011
0110
,  // measure 27
0000
0110
0000
1001
0000
1001
0000
1000
,  // measure 28
0010
0100
0001
0100
0010
0000
1000
1000
,  // measure 29
0001
0001
1000
0100
0010
0000
0011
0000
,  // measure 30
0001
0000
0010
0000
0100
0000
1000
0000
0010
0000
1000
0010
0000
0000
0000
0000
,  // measure 31
0100
0100
0010
0010
1000
0000
1001
0000
,  // measure 32
0001
0000
0010
0000
0100
0000
1000
0000
0010
0000
0010
0100
0000
0000
0000
0000
,  // measure 33
0001
0000
0100
0000
0010
0000
1000
0001
0000
0000
0000
0000
1000
0000
0100
0000
,  // measure 34
0010
0000
0001
0000
1000
0000
0010
1000
0000
0000
0000
0000
0010
0000
0100
0000
,  // measure 35
0101
0101
0000
0011
0000
1010
0000
0001
,  // measure 36
0010
0100
1000
0010
0100
0000
0100
0010
,  // measure 37
1000
0001
0010
0100
0010
0000
0011
0000
,  // measure 38
0001
0000
0010
0000
0100
0000
1000
0000
1000
0010
0100
0001
0010
0000
0000
0000
,  // measure 39
0001
0010
0100
1000
0010
0000
1010
0000
,  // measure 40
1000
0000
0100
0000
0010
0000
0001
0000
0100
0010
0100
0001
0100
0000
0000
0000
,  // measure 41
0010
0000
1000
0000
0001
0000
0010
0001
0000
0000
0000
0000
0001
0000
0010
0000
,  // measure 42
0100
0000
1000
0000
0010
0000
1000
0010
0000
0000
0000
0000
0100
0000
0010
0000
,  // measure 43
1000
1010
0000
0101
0000
0011
0000
0001
,  // measure 44
0010
0100
1000
0100
0010
0001
1000
1000
,  // measure 45
0001
1000
1001
0101
,  // measure 46
0001
0100
0010
0000
1000
0100
0010
0000
,  // measure 47
0001
1000
1001
1100
,  // measure 48
1000
0000
0000
1000
0000
0000
1000
0000
0001
0000
0000
0000
1001
0000
0000
0000
,  // measure 49
0001
0100
0001
0100
0010
0100
0010
0100
,  // measure 50
0010
1000
0010
1000
0100
1000
0100
1000
,  // measure 51
0100
1000
0010
0100
0001
0010
0100
0010
,  // measure 52
0001
0000
0000
0000
0000
0000
1000
0001
,  // measure 53
1000
0010
0100
0001
0100
0000
0000
0100
,  // measure 54
0001
0000
0010
0000
0001
0000
0001
0000
0010
0000
0100
1000
0000
0000
1000
0000
,  // measure 55
0100
0000
0010
0000
0001
0000
1000
0000
0010
0000
0010
0100
0000
0000
0001
0000
,  // measure 56
0100
0000
0010
0000
1000
0000
0001
0000
0010
0000
0001
0010
0000
0000
0000
0000
,  // measure 57
0001
0000
0010
0000
0100
0000
1000
0100
0000
0000
0000
0000
1000
0000
0100
0000
,  // measure 58
0010
0000
0001
0000
1000
0000
0010
0100
0000
0000
0000
0000
0100
0000
0010
0000
,  // measure 59
1010
0101
0000
1001
0000
1100
0000
1000
,  // measure 60
1000
0100
0100
0010
0010
0000
0001
0010
,  // measure 61
0100
1000
0010
0100
0001
0000
0101
0000
,  // measure 62
0001
0000
0100
0000
0010
0000
1000
0000
0001
0000
1000
0001
1000
0000
0000
0000
,  // measure 63
0001
0000
0010
0000
0100
0000
1000
0000
0100
0010
0100
1000
0010
0000
0000
0000
,  // measure 64
0100
0000
0001
0000
0100
0000
0010
0000
0100
0000
0001
0100
0000
0000
0000
0000
,  // measure 65
0010
0100
0001
0000
0010
0000
0100
0000
1000
0000
0000
0000
0010
0000
1000
0000
,  // measure 66
0100
1000
0010
0000
0100
0000
0001
0000
0010
0000
0000
0000
0100
0000
0010
0000
,  // measure 67
0001
0011
0000
1100
0000
0101
0000
0100
,  // measure 68
0100
0010
0010
1000
1000
0001
1000
0010
,  // measure 69
0100
0000
0000
0000
;
