#TITLE:It's all about;
#SUBTITLE:;
#ARTIST:傳田真央 feat. SPHERE of INFLUENCE;
#TITLETRANSLIT:;
#SUBTITLETRANSLIT:;
#ARTISTTRANSLIT:Mao Denda feat. SPHERE of INFLUENCE;
#GENRE:;
#CREDIT:;
#BANNER:It's all about.png;
#BACKGROUND:It's all about-bg.png;
#LYRICSPATH:;
#CDTITLE:cdtitle.png;
#MUSIC:It's all about.ogg;
#OFFSET:0.000000;
#SAMPLESTART:41.143002;
#SAMPLELENGTH:12.000000;
#SELECTABLE:YES;
#BPMS:0.000000=70.000000
;
#STOPS:
;
#BGCHANGES:;
#KEYSOUNDS:;
#ATTACKS:;

//---------------dance-single - ----------------
#NOTES:
     dance-single:
     :
     Hard:
     8:
     0.287877,0.287246,0.173553,0.000000,0.033746,209.000000,191.000000,18.000000,0.000000,0.000000,0.000000,0.287877,0.287246,0.173553,0.000000,0.033746,209.000000,191.000000,18.000000,0.000000,0.000000,0.000000:
0000
0000
0000
0000
,
0000
0000
0000
0000
,
1000
0100
0001
0000
0010
1000
0100
0000
,
0001
0010
1000
0000
0100
0001
0010
0000
,
0010
0100
1000
0000
0000
0010
0100
1000
,
0010
0100
0001
0000
0101
0001
1010
1000
,
0100
0010
0001
0000
0000
0100
0010
0001
,
0100
0010
1000
0000
1010
1000
0101
0001
,
1000
0000
0001
0000
0100
0100
0100
0000
,
0001
0100
1000
0100
0001
1000
0100
0010
,
0010
0000
0100
0000
0001
0001
0001
0000
,
0100
0001
0100
1000
0010
0001
1000
0100
,
0001
0000
0000
1000
0000
0000
1100
0000
0000
0000
0000
0000
0010
0000
0003
0001
0000
0000
0011
0000
0000
0030
0000
0000
,
0010
0100
1000
0001
0100
0010
1000
0010
,
0100
0001
0101
0000
0010
1000
1010
0000
,
0100
0010
0001
1000
0010
0100
0001
0100
,
0010
1000
0100
0000
0010
1000
0100
0000
,
0010
0001
0100
1000
0010
0000
0000
0000
,
0100
0001
0010
0000
0100
0001
0010
0000
,
0100
1000
0010
0001
0100
1000
0010
0000
,
1010
1000
0001
0100
0001
0010
0100
0100
,
0011
0010
0100
1000
0001
0100
0010
1000
,
0101
0001
1000
0010
1000
0100
0010
0010
,
1100
0100
0010
0001
1000
0010
0100
0001
,
0001
0000
0000
1000
0000
0000
1100
0000
0000
0000
0000
0000
0010
0000
0003
0001
0000
0000
0011
0000
0000
0030
0000
0000
,
0010
0100
1000
0001
0100
0010
1000
0010
,
0100
0001
0101
0000
0010
1000
1010
0000
,
0100
0010
0001
1000
0010
0100
0001
0100
,
0010
0000
1000
0000
1001
0000
0000
0001
1000
0000
0000
1000
0001
0000
0000
0000
,
0100
0000
0000
0000
0000
0000
0010
0000
0000
0000
0000
0000
0110
0000
0000
0000
0000
0000
0000
0000
0000
0100
0000
0000
0010
0000
0000
0000
0000
0000
0000
0000
0000
0010
0000
0000
0100
0000
0100
0000
0000
0000
0000
0000
0000
0000
0000
0000
;

//---------------dance-single - ----------------
#NOTES:
     dance-single:
     :
     Medium:
     6:
     0.199723,0.215434,0.028925,0.000000,0.004821,145.000000,142.000000,3.000000,0.000000,0.000000,0.000000,0.199723,0.215434,0.028925,0.000000,0.004821,145.000000,142.000000,3.000000,0.000000,0.000000,0.000000:
0000
0000
0000
0000
,
0000
0000
0000
0000
,
1000
0000
0100
0000
0000
1000
0100
0000
,
0010
0000
0001
0000
0000
0010
0001
0000
,
0001
1000
0010
0000
0100
0000
0001
0000
,
1000
0100
0010
0000
0001
0000
0010
0000
,
0100
1000
0010
0000
1000
0000
0010
0000
,
0100
0001
0010
0000
0001
0000
0010
0000
,
0001
0000
1000
0000
0001
1000
0100
0000
,
1000
0000
0001
0000
1000
0001
0010
0000
,
0100
1000
0010
0100
,
0100
0001
0010
0001
,
0001
0010
0100
0000
0010
0100
1000
0000
,
0001
0100
1000
0100
,
1000
0100
0010
0000
0001
0100
0010
0000
,
1000
0010
0001
0010
,
0010
0100
0010
0000
0100
0010
0100
0000
,
0010
1000
0100
0001
,
0010
0100
0010
0000
0100
0010
0100
0000
,
0010
0001
0100
1000
,
0010
0000
0100
0000
0001
0010
0100
1000
,
0100
1000
1100
0101
,
0100
0000
0010
0000
1000
0001
0100
0001
,
1000
0000
1001
0000
0001
0010
0100
1000
,
1000
0100
0010
0000
0100
0010
0001
0000
,
1000
0010
0001
0010
,
0001
0010
0100
0000
1000
0010
0100
0000
,
0001
0100
1000
0100
,
0100
0010
0100
0000
0010
0100
0010
0000
,
0010
0000
0000
0001
0000
0000
1000
0000
0000
0100
0000
0000
1000
0000
0000
0010
0000
0000
0100
0100
0000
0000
0000
0000
;

//---------------dance-single - ----------------
#NOTES:
     dance-single:
     :
     Easy:
     3:
     0.107437,0.143422,0.028925,0.000000,0.000000,78.000000,75.000000,3.000000,0.000000,0.000000,0.000000,0.107437,0.143422,0.028925,0.000000,0.000000,78.000000,75.000000,3.000000,0.000000,0.000000,0.000000:
0000
0000
0000
0000
,
0000
0000
0000
0000
,
0000
0000
0000
0000
,
0000
0000
0000
0000
,
1000
0000
0010
0000
,
1000
0010
1000
0000
,
0001
0000
0100
0000
,
0001
0100
0001
0000
,
1000
0000
0001
0000
,
0010
0100
1000
0000
,
0001
0000
1000
0000
,
0010
0100
0001
0000
,
0100
0100
0100
0000
,
0010
0010
0010
0000
,
1000
0001
1000
1000
,
0001
1000
0001
0001
,
1000
0000
0100
0000
,
0010
0010
0100
0000
,
1000
0000
0010
0000
,
0100
0100
0001
0000
,
0001
0100
0001
0100
,
0001
1000
0001
0000
,
1000
0100
1000
0100
,
1000
0001
1000
0000
,
0100
0100
0100
0000
,
0010
0010
0010
0000
,
0001
1000
0001
0001
,
1000
0001
1000
1000
,
1001
0000
0000
0000
,
0110
0000
0000
0110
;

//---------------dance-single - ----------------
#NOTES:
     dance-single:
     :
     Beginner:
     1:
     0.060606,0.086053,0.028925,0.000000,0.000000,44.000000,41.000000,3.000000,0.000000,0.000000,0.000000,0.060606,0.086053,0.028925,0.000000,0.000000,44.000000,41.000000,3.000000,0.000000,0.000000,0.000000:
// measure 0
0000
0000
0000
0000
,  // measure 1
0000
0000
0000
0000
,  // measure 2
0000
0000
0000
0000
,  // measure 3
0000
0000
0000
0000
,  // measure 4
1000
0000
0000
0000
,  // measure 5
0010
0000
0000
0000
,  // measure 6
0100
0000
0000
0000
,  // measure 7
0001
0000
0000
0000
,  // measure 8
1000
0000
0000
0000
,  // measure 9
0001
0000
0000
0000
,  // measure 10
0010
0000
0000
0000
,  // measure 11
0100
0000
0000
0000
,  // measure 12
0100
0000
0100
0000
,  // measure 13
0010
0000
0010
0000
,  // measure 14
0001
0000
0001
0000
,  // measure 15
1000
0000
1000
0000
,  // measure 16
1000
0000
0000
0000
,  // measure 17
0010
0000
0010
0000
,  // measure 18
0100
0000
0000
0000
,  // measure 19
0001
0000
0001
0000
,  // measure 20
0001
0000
1000
0000
,  // measure 21
0001
0000
1000
0000
,  // measure 22
0100
0000
0010
0000
,  // measure 23
0100
0000
0010
0000
,  // measure 24
0100
0000
0100
0000
,  // measure 25
0010
0000
0010
0000
,  // measure 26
0001
0000
1000
0000
,  // measure 27
0001
0000
0001
0000
,  // measure 28
1001
0000
0000
0000
,  // measure 29
0110
0000
0000
0110
;
