#TITLE:It's All About Me (feat. Sisqó);
#SUBTITLE:;
#ARTIST:Mýa;
#TITLETRANSLIT:It's All About Me (feat. Sisqo);
#SUBTITLETRANSLIT:;
#ARTISTTRANSLIT:Mya;
#GENRE:Pop;
#CREDIT:chewi;
#BANNER:It's All About Me (feat. Sisqo).png;
#BACKGROUND:It's All About Me (feat. Sisqo)-bg.png;
#LYRICSPATH:;
#CDTITLE:cdtitle.png;
#MUSIC:It's All About Me (feat. Sisqo).ogg;
#OFFSET:-0.737000;
#SAMPLESTART:41.682999;
#SAMPLELENGTH:15.000000;
#SELECTABLE:YES;
#DISPLAYBPM:69.000000;
#BPMS:0.000000=68.500000
;
#STOPS:
;
#BGCHANGES:-0.500=It's All About Me (feat. Sisqo).avi=1.000=1=0=0=StretchNoLoop==CrossFade==,
148.000=It's All About Me (feat. Sisqo)-bg.png=1.000=1=0=1===CrossFade==,
99999=-nosongbg-=1.000=0=0=0 // don't automatically add -songbackground-
;
#KEYSOUNDS:;
#ATTACKS:;

//---------------dance-single - ----------------
#NOTES:
     dance-single:
     :
     Beginner:
     2:
     0.056016,0.069751,0.000000,0.052784,0.000000,52.000000,52.000000,0.000000,7.000000,0.000000,0.000000,0.056016,0.069751,0.000000,0.052784,0.000000,52.000000,52.000000,0.000000,7.000000,0.000000,0.000000:
// measure 0
0000
0000
0000
0000
,  // measure 1
0000
0000
0000
0000
,  // measure 2
1000
0000
0000
0000
,  // measure 3
0001
0000
0000
0000
,  // measure 4
0100
0000
0100
0000
,  // measure 5
0100
0000
0000
0000
,  // measure 6
0010
0000
0010
0000
,  // measure 7
0010
0000
0000
0000
,  // measure 8
1000
0000
1000
0000
,  // measure 9
1000
0000
0000
0000
,  // measure 10
0001
0000
0001
0000
,  // measure 11
0001
0000
0000
0000
,  // measure 12
2000
0000
3000
0000
,  // measure 13
0002
0000
0003
0000
,  // measure 14
0200
0000
0300
0000
,  // measure 15
0010
0000
0010
0000
,  // measure 16
2000
0000
0000
3000
,  // measure 17
1000
0000
1000
0000
,  // measure 18
0002
0000
0000
0003
,  // measure 19
0001
0000
0001
0000
,  // measure 20
0100
0000
0000
0000
,  // measure 21
0010
0000
0000
0000
,  // measure 22
1000
0000
0000
0000
,  // measure 23
0001
0000
0000
0000
,  // measure 24
2000
0000
0000
3000
,  // measure 25
1000
0000
0000
0000
,  // measure 26
0002
0000
0000
0003
,  // measure 27
0001
0000
0000
0000
,  // measure 28
0100
0000
0100
0000
,  // measure 29
0001
0000
0001
0000
,  // measure 30
1000
0000
1000
0000
,  // measure 31
0010
0000
0010
0000
,  // measure 32
1000
0000
1000
0000
,  // measure 33
0100
0000
0100
0000
,  // measure 34
0001
0000
0001
0000
,  // measure 35
0010
0000
0010
0000
,  // measure 36
0010
0000
0010
0000
,  // measure 37
0100
0000
0000
0000
;

//---------------dance-single - ----------------
#NOTES:
     dance-single:
     :
     Hard:
     9:
     0.272540,0.279003,0.188516,0.211137,0.064095,253.000000,228.000000,25.000000,28.000000,0.000000,0.000000,0.272540,0.279003,0.188516,0.211137,0.064095,253.000000,228.000000,25.000000,28.000000,0.000000,0.000000:
// measure 0
0000
0000
0000
0000
,  // measure 1
0000
0000
0000
0000
,  // measure 2
1000
0100
0000
0100
2000
0000
0000
0000
3001
0000
0000
1000
0001
0000
0000
0000
,  // measure 3
0101
1010
0101
1010
,  // measure 4
1000
0001
0010
0100
2000
0000
3001
0000
,  // measure 5
1000
0001
0100
0010
0100
0000
0110
0000
,  // measure 6
1000
0010
0001
0010
2000
0000
3100
0000
,  // measure 7
0001
0100
1000
0100
0001
0000
1001
1000
,  // measure 8
1000
0010
0100
0001
0200
0000
0301
0000
,  // measure 9
0001
0010
0100
1000
0100
0000
1100
0000
,  // measure 10
0001
0010
0100
0010
0002
0000
0103
0000
,  // measure 11
0010
0000
1010
0000
0100
0000
0011
0001
,  // measure 12
1000
0000
1000
0000
1000
0000
1000
0000
1000
0000
0000
0000
1000
0001
0100
0000
,  // measure 13
0001
0000
0001
0000
0001
0000
0001
0000
0001
0000
0000
0000
0001
1000
0100
0000
,  // measure 14
0100
0100
0100
0100
0100
0000
1000
0001
,  // measure 15
1000
1000
0010
0000
1001
0000
0000
0000
0001
0001
0010
0000
1001
0000
1000
0000
,  // measure 16
0002
0023
2030
3200
,  // measure 17
0301
0100
1000
0100
0001
0100
1000
0010
,  // measure 18
0002
0023
0230
0302
,  // measure 19
0013
1000
0010
0001
0010
1000
0001
0010
,  // measure 20
0200
2300
3002
0023
,  // measure 21
0031
0010
0100
0010
0001
0100
0010
1000
,  // measure 22
0002
2003
3020
0130
,  // measure 23
0110
1001
0110
1001
,  // measure 24
2001
0000
0001
0000
0001
0000
0000
0000
3100
0000
0000
0000
0000
0100
0000
0000
,  // measure 25
0210
0010
0010
0000
1300
0000
0001
0010
,  // measure 26
0012
0000
0010
0000
0010
0000
0000
0000
1003
0000
0000
0000
0000
1000
0000
0000
,  // measure 27
2001
0001
0001
0000
3010
0000
1001
1000
,  // measure 28
0001
0000
0001
0000
0001
0000
0001
0000
0001
0000
0000
0000
0001
1000
0010
0000
,  // measure 29
1000
0000
1000
0000
1000
0000
1000
0000
1000
0000
0000
0000
1000
0001
0010
0000
,  // measure 30
0010
0010
0010
0010
0010
0000
0001
1000
,  // measure 31
0001
0001
0010
0000
1001
0000
0000
0000
1000
1000
0010
0000
1001
0000
0001
0000
,  // measure 32
0100
0000
0100
0000
0100
0000
0100
0000
0100
0000
0000
0000
0100
0001
1000
0000
,  // measure 33
0010
0000
0010
0000
0010
0000
0010
0000
0010
0000
0000
0000
0010
1000
0001
0000
,  // measure 34
1000
1000
1000
1000
1000
0000
1000
0001
,  // measure 35
0100
0100
0010
0000
1001
0000
0000
0000
0100
0100
0010
0000
1001
0000
1000
0000
,  // measure 36
0002
0023
0230
2300
3001
0000
1001
0000
,  // measure 37
0100
0000
0000
0000
;

//---------------dance-single - ----------------
#NOTES:
     dance-single:
     :
     Easy:
     4:
     0.096951,0.111601,0.000000,0.000000,0.000000,90.000000,90.000000,0.000000,0.000000,0.000000,0.000000,0.096951,0.111601,0.000000,0.000000,0.000000,90.000000,90.000000,0.000000,0.000000,0.000000,0.000000:
// measure 0
0000
0000
0000
0000
,  // measure 1
0000
0000
0000
0000
,  // measure 2
1000
0000
0001
0000
,  // measure 3
1000
1000
1000
1000
,  // measure 4
1000
0000
0010
0000
,  // measure 5
0100
0000
0001
0000
,  // measure 6
0001
0000
0010
0000
,  // measure 7
0100
0000
1000
0000
,  // measure 8
1000
0000
0001
0000
,  // measure 9
0100
0000
0100
0000
,  // measure 10
0001
0000
1000
0000
,  // measure 11
0100
0000
0100
0000
,  // measure 12
0010
0010
0010
0000
,  // measure 13
0010
0010
0010
0000
,  // measure 14
0100
0100
0100
0000
,  // measure 15
0100
0100
0100
0000
,  // measure 16
1000
1000
1000
0000
,  // measure 17
0001
0001
0001
0000
,  // measure 18
0100
0010
0100
0000
,  // measure 19
0010
0100
0010
0000
,  // measure 20
0010
0010
0010
0000
,  // measure 21
0100
0100
0100
0000
,  // measure 22
0001
1000
0001
0000
,  // measure 23
1000
1000
1000
1000
,  // measure 24
1000
0000
0000
0000
,  // measure 25
0001
0000
0000
0000
,  // measure 26
0100
0000
0000
0000
,  // measure 27
0010
0000
0000
0000
,  // measure 28
0010
0010
0010
0000
,  // measure 29
0100
0100
0100
0000
,  // measure 30
0001
0001
0001
0000
,  // measure 31
1000
1000
1000
0000
,  // measure 32
1000
1000
1000
0000
,  // measure 33
0100
0100
0100
0000
,  // measure 34
0010
0010
0010
0000
,  // measure 35
0001
0001
0001
0000
,  // measure 36
0001
0000
0100
0000
,  // measure 37
0001
0000
0000
0000
;

//---------------dance-single - ----------------
#NOTES:
     dance-single:
     :
     Medium:
     6:
     0.175589,0.181352,0.105569,0.218678,0.000000,163.000000,149.000000,14.000000,29.000000,0.000000,0.000000,0.175589,0.181352,0.105569,0.218678,0.000000,163.000000,149.000000,14.000000,29.000000,0.000000,0.000000:
// measure 0
0000
0000
0000
0000
,  // measure 1
0000
0000
0000
0000
,  // measure 2
2000
3100
1000
1100
,  // measure 3
0002
0103
0001
0101
,  // measure 4
0100
0101
0010
1010
,  // measure 5
2000
0000
3001
0000
1000
0001
1000
0000
,  // measure 6
0001
0011
1000
1010
,  // measure 7
0002
0000
1003
0000
1000
0001
1000
0000
,  // measure 8
0001
0000
0010
0000
0100
0100
0100
0000
,  // measure 9
0100
0000
1000
0000
0010
0010
0010
0000
,  // measure 10
1000
0000
0010
0000
0100
0100
0100
0000
,  // measure 11
0001
0000
1000
0000
0001
0001
0001
0000
,  // measure 12
0002
2003
3001
1001
,  // measure 13
0020
0000
0230
0000
0310
0000
0110
0010
,  // measure 14
0200
0000
0302
0000
0203
0000
0301
1000
,  // measure 15
0001
0010
0001
0010
,  // measure 16
0010
0100
1000
0001
,  // measure 17
0010
0100
0010
0001
,  // measure 18
0100
0010
1000
0001
,  // measure 19
1000
0100
0001
0010
,  // measure 20
1000
0100
0010
0100
,  // measure 21
1000
0001
0100
0010
,  // measure 22
0001
0010
0100
0001
,  // measure 23
0010
1000
0100
0001
,  // measure 24
0020
0100
0000
0130
,  // measure 25
0200
1000
0000
1300
,  // measure 26
2000
0001
0000
3001
,  // measure 27
0002
1000
0000
1003
,  // measure 28
0002
2003
3001
1001
,  // measure 29
0020
0000
0230
0000
0310
0000
0110
0100
,  // measure 30
0200
0000
2300
0000
3200
0000
1300
0001
,  // measure 31
1000
0000
0010
0000
0001
0000
0010
0010
,  // measure 32
2000
3002
1003
1001
,  // measure 33
0200
0000
0320
0000
0130
0000
0110
0010
,  // measure 34
0020
0000
2030
0000
3020
0000
1030
0001
,  // measure 35
1000
0100
0001
0100
,  // measure 36
0110
0100
0100
0000
,  // measure 37
0110
0000
0000
0000
;
