#TITLE:Insert Coin (Feat. 정문);
#SUBTITLE:;
#ARTIST:크리스피 크런치;
#TITLETRANSLIT:Insert Coin (Feat. Jeong Mun);
#SUBTITLETRANSLIT:;
#ARTISTTRANSLIT:Crispi Crunch;
#GENRE:Pop;
#CREDIT:chewi;
#BANNER:Insert Coin (Feat. Jeong Mun).png;
#BACKGROUND:Insert Coin (Feat. Jeong Mun)-bg.png;
#LYRICSPATH:;
#CDTITLE:cdtitle.png;
#MUSIC:Insert Coin (Feat. Jeong Mun).ogg;
#OFFSET:-0.551014;
#SAMPLESTART:59.628002;
#SAMPLELENGTH:15.000000;
#SELECTABLE:YES;
#BPMS:0.000000=130.000000
;
#STOPS:
;
#BGCHANGES:;
#KEYSOUNDS:;
#ATTACKS:;

//---------------dance-single - ----------------
#NOTES:
     dance-single:
     :
     Easy:
     5:
     0.228189,0.266220,0.010866,0.086929,0.000000,147.000000,146.000000,1.000000,8.000000,0.000000,0.000000,0.228189,0.266220,0.010866,0.086929,0.000000,147.000000,146.000000,1.000000,8.000000,0.000000,0.000000:
0000
0000
0000
0000
,
0000
0000
0000
0000
,
0000
0000
0000
0000
,
0000
0000
0000
0000
,
2000
0000
0000
3000
,
1000
0100
0010
0000
,
0002
0000
0000
0003
,
0001
0100
0010
0000
,
0000
1000
0001
1000
,
0010
0010
0010
0010
,
0000
1000
0001
1000
,
0100
0100
0100
0100
,
0000
0010
0010
0010
,
0000
0100
0100
0100
,
1000
0010
0001
0100
,
1000
0000
0001
0001
,
0001
1000
0100
1000
,
0001
1000
0100
1000
,
1000
0001
0100
0001
,
1000
0001
0100
0001
,
1000
0010
0001
0010
,
1000
0010
0001
0010
,
1000
0100
0001
0100
,
1000
0100
0001
0100
,
0200
0000
0000
0300
,
0020
0000
0000
0030
,
0002
0000
0000
0003
,
2000
0000
0000
3000
,
1000
0001
1000
0001
,
0100
0010
0100
0010
,
1000
0010
1000
0010
,
0100
0001
0000
0000
,
0001
1000
0100
0100
,
0100
0010
0100
0000
,
1000
0001
0100
0100
,
0010
0100
0010
0000
,
1000
0010
0001
0001
,
0010
1000
0010
0000
,
0001
0100
1000
1000
,
0100
0001
0100
0000
,
0100
0010
0100
0010
,
0100
0010
0001
1000
,
0010
0100
0010
0100
,
0001
1000
0100
1000
,
0001
1000
0001
1000
,
0010
0100
0001
1000
,
0010
1000
0010
1000
,
0001
0010
0100
1000
,
2002
0000
0000
0000
,
3003
0000
0000
0000
;

//---------------dance-single - ----------------
#NOTES:
     dance-single:
     :
     Beginner:
     3:
     0.141260,0.208630,0.054331,0.065197,0.000000,91.000000,86.000000,5.000000,6.000000,0.000000,0.000000,0.141260,0.208630,0.054331,0.065197,0.000000,91.000000,86.000000,5.000000,6.000000,0.000000,0.000000:
// measure 0
0000
0000
0000
0000
,  // measure 1
0000
0000
0000
0000
,  // measure 2
0000
0000
0000
0000
,  // measure 3
0000
0000
0000
0000
,  // measure 4
2000
0000
0000
3000
,  // measure 5
1000
0000
0000
0000
,  // measure 6
0002
0000
0000
0003
,  // measure 7
0001
0000
0000
0000
,  // measure 8
1000
0000
0010
0000
,  // measure 9
2000
0000
0000
3000
,  // measure 10
1000
0000
0001
0000
,  // measure 11
0002
0000
0000
0003
,  // measure 12
0001
0000
1000
0000
,  // measure 13
0001
0000
1000
0000
,  // measure 14
0010
0000
0100
0000
,  // measure 15
0010
0000
0010
0000
,  // measure 16
1000
0000
1000
0000
,  // measure 17
0001
0000
0001
0000
,  // measure 18
0010
0000
0010
0000
,  // measure 19
0100
0000
0100
0000
,  // measure 20
1000
0000
1000
0000
,  // measure 21
0001
0000
0001
0000
,  // measure 22
1000
0000
1000
0000
,  // measure 23
0001
0000
0001
0000
,  // measure 24
0200
0000
0000
0300
,  // measure 25
0100
0100
0100
0000
,  // measure 26
0020
0000
0000
0030
,  // measure 27
0010
0010
0010
0000
,  // measure 28
0110
0000
0000
0000
,  // measure 29
1001
0000
0000
0000
,  // measure 30
1000
0000
0001
0000
,  // measure 31
1000
0001
1000
0000
,  // measure 32
0010
0000
0010
0000
,  // measure 33
0100
0000
0100
0000
,  // measure 34
0001
0000
0001
0000
,  // measure 35
1000
0000
1000
0000
,  // measure 36
0001
0000
0001
0000
,  // measure 37
0010
0000
0010
0000
,  // measure 38
0100
0000
0100
0000
,  // measure 39
1000
0000
1000
0000
,  // measure 40
0001
0001
0001
0000
,  // measure 41
1000
0000
1001
0000
,  // measure 42
1000
1000
1000
0000
,  // measure 43
0001
0000
1001
0000
,  // measure 44
0100
0100
0100
0000
,  // measure 45
0010
0000
0110
0000
,  // measure 46
0010
0010
0010
0000
,  // measure 47
0010
0000
1000
0000
,  // measure 48
0001
0000
0000
0000
;

//---------------dance-single - ----------------
#NOTES:
     dance-single:
     :
     Medium:
     7:
     0.301147,0.372709,0.249921,0.086929,0.000000,194.000000,171.000000,23.000000,8.000000,0.000000,0.000000,0.301147,0.372709,0.249921,0.086929,0.000000,194.000000,171.000000,23.000000,8.000000,0.000000,0.000000:
0000
0000
0000
0000
,
0000
0000
0000
0000
,
0000
0000
0000
0000
,
0000
0000
0000
0000
,
0020
0000
0000
0030
,
0010
0001
0100
1000
,
0020
0000
0000
0030
,
0010
0100
0010
0110
,
0010
0010
1000
0001
,
0110
0110
1001
1001
,
1000
0001
0100
0010
,
0110
0000
0110
0110
,
0000
0010
1000
0001
,
0000
0010
0001
1000
,
0100
0001
0010
1000
,
0100
0100
0110
0110
,
0010
0001
0010
0000
0100
0000
1000
0000
,
0001
0100
0110
1001
,
1000
0010
1000
0000
0001
0000
0100
0000
,
0010
1000
0001
1001
,
0010
0100
1000
0000
0010
0000
0101
0000
,
1000
0100
1000
0000
0001
0000
0011
0000
,
1000
0010
1000
0000
0001
0000
0101
0000
,
0100
0010
0100
0000
0010
0000
1001
0000
,
2000
0000
0100
0000
,
0010
0001
0010
0100
,
3002
0000
0100
0000
,
1000
0010
1000
0100
,
0103
0100
0100
0100
,
0010
0010
0010
0010
,
1000
0001
1000
0001
,
2002
3003
0000
0000
,
0001
0001
0001
0000
0001
0000
0101
0000
,
0100
0010
1000
0001
,
1000
1000
1000
0000
1000
0000
1100
0000
,
1000
0100
0010
0001
,
0010
0010
0010
0000
0100
0000
0110
0000
,
0010
0100
1000
0001
,
0100
0100
0100
0000
0010
0000
0110
0000
,
0010
0100
0001
1000
,
0001
0010
1000
0010
,
0001
0010
1000
0100
,
0001
0100
1000
0100
,
0001
0100
1000
0010
,
0001
0100
0001
0010
,
0100
1000
0100
1000
,
0010
1000
0100
1000
,
0010
0001
0010
1000
,
2002
0000
0000
0000
,
3003
0000
0000
0000
;

//---------------dance-single - ----------------
#NOTES:
     dance-single:
     :
     Hard:
     10:
     0.426884,0.469417,0.249921,0.032598,0.000000,275.000000,252.000000,23.000000,3.000000,0.000000,0.000000,0.426884,0.469417,0.249921,0.032598,0.000000,275.000000,252.000000,23.000000,3.000000,0.000000,0.000000:
0000
0000
0000
0000
,
0000
0000
0000
0000
,
0000
0000
0000
0000
,
0000
0000
0000
0000
,
0010
1000
0001
0100
,
0010
1000
0001
1000
,
0100
0010
0001
1000
,
0100
1000
0001
1000
,
0000
0001
1000
0010
1000
0001
1000
0000
,
1010
0011
1010
0011
,
0000
0010
0100
1000
0001
1000
0100
0000
,
1100
0000
0000
0101
0000
1000
0100
0000
,
0000
1000
0010
0010
0001
0010
0010
0000
,
0000
0001
0100
0100
1000
0100
0100
1000
,
0001
0100
1000
0100
0002
0000
0000
0000
,
1003
0000
0100
0010
0011
0000
0011
0000
,
0001
0010
0100
0010
0001
0010
0100
0010
,
0001
0010
0100
1000
0010
1000
1100
0000
,
1000
0010
1000
0100
1000
0010
1000
0100
,
1000
0010
0100
0001
0010
0001
0011
0000
,
0010
0100
1000
0001
0100
0010
1000
0001
,
0100
1000
0100
0001
0010
1000
0010
0001
,
0010
0100
1000
0010
1000
0100
1000
0010
,
0100
0001
0100
0010
0100
0001
1000
0010
,
1000
0100
0001
0010
,
1000
0100
0010
0001
,
1000
0010
0001
0100
,
1000
0010
0100
0001
,
1000
1100
1000
1001
,
0001
0101
0001
1001
,
1000
0100
0001
0100
1000
0010
0001
0010
,
0100
0010
0200
0000
0300
0000
0000
0000
,
0010
0100
0001
0010
0100
0000
1100
0000
,
1000
0001
0100
0000
0001
1000
0100
0000
,
1000
0010
0100
0001
0010
0000
0011
0000
,
0001
0010
0100
0000
1000
0100
0010
0000
,
0001
1000
0010
0100
0001
0000
0101
0000
,
0100
0010
1000
0000
0001
0010
0100
0000
,
1000
0010
0100
0001
1000
0000
1010
0000
,
1000
0010
0001
0100
1000
0000
1010
0000
,
0100
0010
1000
0100
0010
0000
0011
0000
,
0001
1000
0010
0000
1000
0001
0010
0000
,
0001
0100
0010
1000
0100
0000
1100
0000
,
1000
0100
0010
0000
0001
0010
0100
0000
,
1000
0001
0100
0010
1000
0000
1010
0000
,
0010
0100
0001
0000
1000
0100
0010
0000
,
0001
0100
0010
1000
0001
0000
0101
0000
,
0001
0100
1000
0010
0002
0000
0000
0000
,
0103
0000
0000
0000
;
