#VERSION:0.82;
#TITLE:Independent Women Part I;
#SUBTITLE:;
#ARTIST:Destiny's Child;
#TITLETRANSLIT:;
#SUBTITLETRANSLIT:;
#ARTISTTRANSLIT:;
#GENRE:R&B;
#ORIGIN:;
#CREDIT:chewi;
#BANNER:Independent Women Part I.png;
#BACKGROUND:Independent Women Part I-bg.png;
#PREVIEWVID:;
#JACKET:Independent Women Part I-jacket.png;
#CDIMAGE:;
#DISCIMAGE:;
#LYRICSPATH:;
#CDTITLE:cdtitle.png;
#MUSIC:Independent Women Part I.ogg;
#OFFSET:-2.778000;
#SAMPLESTART:59.112000;
#SAMPLELENGTH:15.000000;
#SELECTABLE:YES;
#BPMS:0.000=98.000;
#STOPS:;
#DELAYS:;
#WARPS:;
#TIMESIGNATURES:0.000=4=4;
#TICKCOUNTS:0.000=4;
#COMBOS:0.000=1;
#SPEEDS:0.000=1.000=0.000=0;
#SCROLLS:0.000=1.000;
#FAKES:;
#LABELS:0.000=Song Start;
#BGCHANGES:;
#KEYSOUNDS:;
#ATTACKS:
;

//---------------dance-single - ----------------
#NOTEDATA:;
#CHARTNAME:;
#STEPSTYPE:dance-single;
#DESCRIPTION:;
#CHARTSTYLE:Pad;
#DIFFICULTY:Beginner;
#METER:1;
#RADARVALUES:0.094305,0.094692,0.075753,0.086575,0.000000,46.000000,7.000000,8.000000,0.000000,0.000000,0.000000,0.000000,0.000000,0.094305,0.094692,0.075753,0.086575,0.000000,46.000000,7.000000,8.000000,0.000000,0.000000,0.000000,0.000000,0.000000;
#CREDIT:chewi;
#NOTES:
// measure 0
0000
0000
0000
0000
,  // measure 1
0000
0000
0000
0000
,  // measure 2
1000
0000
0000
0000
,  // measure 3
0001
0000
0000
0000
,  // measure 4
0010
0000
0000
0000
,  // measure 5
0100
0000
0000
0000
,  // measure 6
1001
0000
0000
0000
,  // measure 7
0002
0000
0000
0003
,  // measure 8
0001
0000
0001
0000
,  // measure 9
2000
0000
0000
3000
,  // measure 10
1000
0000
1000
0000
,  // measure 11
0020
0000
0000
0030
,  // measure 12
0010
0000
0010
0000
,  // measure 13
0200
0000
0000
0300
,  // measure 14
0100
0000
0100
0000
,  // measure 15
0110
0000
0000
0000
,  // measure 16
0110
0000
0000
0000
,  // measure 17
0110
0000
0000
0000
,  // measure 18
0010
0010
0010
0000
,  // measure 19
1001
0000
0000
0000
,  // measure 20
1001
0000
0000
0000
,  // measure 21
1001
0000
0000
0000
,  // measure 22
1000
1000
1000
0000
,  // measure 23
0001
0000
0100
0000
,  // measure 24
0200
0000
0000
0300
,  // measure 25
1000
0000
0100
0000
,  // measure 26
0200
0000
0000
0300
,  // measure 27
0001
0000
0010
0000
,  // measure 28
0020
0000
0000
0030
,  // measure 29
1000
0000
0010
0000
,  // measure 30
0020
0000
0000
0030
,  // measure 31
0010
0000
0000
0000
,  // measure 32
0100
0000
0000
0000
,  // measure 33
0001
0000
0000
0000
,  // measure 34
1000
0000
0000
0000
,  // measure 35
0001
0000
0000
0000
;

//---------------dance-single - ----------------
#NOTEDATA:;
#CHARTNAME:;
#STEPSTYPE:dance-single;
#DESCRIPTION:;
#CHARTSTYLE:Pad;
#DIFFICULTY:Easy;
#METER:3;
#RADARVALUES:0.151507,0.132569,0.000000,0.108219,0.000000,88.000000,0.000000,10.000000,0.000000,0.000000,0.000000,0.000000,0.000000,0.151507,0.132569,0.000000,0.108219,0.000000,88.000000,0.000000,10.000000,0.000000,0.000000,0.000000,0.000000,0.000000;
#CREDIT:chewi;
#NOTES:
0000
0000
0000
0000
,
0000
0000
0000
0000
,
1000
1000
1000
0000
,
0001
0001
0001
0000
,
0100
0100
0100
0000
,
0010
0010
0010
0000
,
0010
0010
0010
0000
,
1000
0000
0100
0000
,
0001
0000
0001
0000
,
1000
0000
0010
0000
,
0001
0000
0001
0000
,
1000
0000
0100
0000
,
0010
0000
0001
0000
,
0001
0000
0100
0000
,
0010
0000
1000
0000
,
2000
0000
0000
3100
,
0002
0000
0000
0103
,
2000
0000
0000
3010
,
0001
0010
0001
0010
,
0002
0000
0000
0013
,
2000
0000
0000
3010
,
2000
0000
0000
3100
,
0001
0100
0001
0100
,
0100
0000
0010
0000
,
1000
2000
3001
0001
,
0001
0000
1000
0000
,
0100
0200
0310
0010
,
0010
0000
0100
0000
,
0100
0200
1300
1000
,
0001
0000
1000
0000
,
0001
0002
0013
0010
,
0100
0000
0100
0000
,
0100
1000
0010
0001
,
0100
0000
0100
0000
,
0100
0001
0010
1000
,
0100
0000
0000
0000
;

//---------------dance-single - ----------------
#NOTEDATA:;
#CHARTNAME:;
#STEPSTYPE:dance-single;
#DESCRIPTION:;
#CHARTSTYLE:Pad;
#DIFFICULTY:Medium;
#METER:6;
#RADARVALUES:0.227260,0.206834,0.075753,0.086575,0.124452,132.000000,7.000000,8.000000,0.000000,0.000000,0.000000,0.000000,0.000000,0.227260,0.206834,0.075753,0.086575,0.124452,132.000000,7.000000,8.000000,0.000000,0.000000,0.000000,0.000000,0.000000;
#CREDIT:chewi;
#NOTES:
0000
0000
0000
0000
,
0000
0000
0000
0000
,
1000
0000
0000
0000
0010
0000
0000
0010
0000
0000
0000
0000
0000
0000
0000
0000
,
0001
0000
0000
0000
0010
0000
0000
0010
0000
0000
0000
0000
0000
0000
0000
0000
,
1000
0000
0000
0000
0100
0000
0000
0100
0000
0000
0000
0000
0000
0000
0000
0000
,
0001
0000
0000
0000
0100
0000
0000
0100
0000
0000
0000
0000
0000
0000
0000
0000
,
0100
0000
0000
0000
0100
0000
0000
0100
0000
0000
0000
0000
0000
0000
0000
0000
,
0020
1000
0100
0130
,
0001
0010
0100
1000
,
0002
1000
0010
0013
,
0100
1000
0001
1001
,
2000
0010
0001
3001
,
0100
1000
0100
0010
,
2000
0100
0010
3010
,
0100
0001
1000
0000
,
1001
0000
0000
0001
0000
0001
0000
0001
0000
0000
0000
0000
0000
0000
0000
0000
,
1001
0000
0000
1000
0000
1000
0000
1000
0000
0000
0000
0000
0000
0000
0000
0000
,
0110
0000
0000
0010
0000
0010
0000
0010
0000
0000
0000
0000
0000
0000
0000
0000
,
0100
0100
0001
0001
,
1001
0000
0000
1000
0000
1000
0000
1000
0000
0000
0000
0000
0000
0000
0000
0000
,
1001
0000
0000
0001
0000
0001
0000
0001
0000
0000
0000
0000
0000
0000
0000
0000
,
0110
0000
0000
0010
0000
0010
0000
0010
0000
0000
0000
0000
0000
0000
0000
0000
,
0100
1000
0100
0010
,
0002
0010
0100
1003
,
1000
0000
0001
0000
1000
0001
1000
0000
,
2000
0010
0100
3001
,
0001
0000
1000
0000
0001
1000
0001
0000
,
0200
0010
0001
0310
,
0010
0100
0010
0000
0100
0010
0100
0000
,
0020
1000
0100
1030
,
1000
0010
1000
0000
0010
1000
0010
0000
,
1000
0001
0010
0000
,
0001
0000
1000
0000
0100
0100
0100
0000
,
1000
0001
0100
0000
,
0001
0000
1000
0000
0010
0010
0010
0000
;

//---------------dance-single - ----------------
#NOTEDATA:;
#CHARTNAME:;
#STEPSTYPE:dance-single;
#DESCRIPTION:;
#CHARTSTYLE:Pad;
#DIFFICULTY:Hard;
#METER:10;
#RADARVALUES:0.435969,0.376062,0.259726,0.043288,0.292192,254.000000,24.000000,4.000000,0.000000,0.000000,0.000000,0.000000,0.000000,0.435969,0.376062,0.259726,0.043288,0.292192,254.000000,24.000000,4.000000,0.000000,0.000000,0.000000,0.000000,0.000000;
#CREDIT:chewi;
#NOTES:
0000
0000
0000
0000
,
0000
0000
0000
0000
,
0001
0000
0000
0000
1000
0001
0000
0001
0000
0000
0100
0000
0010
0000
1000
0000
,
0100
0000
0000
0000
0010
0001
0000
0001
0000
0000
0100
0000
0010
0000
1000
0000
,
0001
0000
0000
0000
1000
0010
0000
0010
0000
0000
1000
0000
0001
0000
1000
0000
,
0100
0000
0000
0000
0010
0100
0000
0100
0000
0000
0010
0000
0001
0000
1000
0000
,
0100
0000
0000
0000
1000
0001
0000
0001
0000
0000
0000
0000
1001
0000
0000
0000
,
1000
0000
0010
0100
0001
0100
0010
0000
1000
0000
0000
0000
0001
0000
0010
0000
,
0100
0000
1000
0100
0010
0001
1000
0000
0100
0000
0000
0000
1000
0000
0001
0000
,
0100
0000
0010
0100
0001
0100
0010
0000
1000
0000
0000
0000
0100
0000
1000
0000
,
0010
0000
1000
0001
0100
0001
1000
0000
0001
0000
0000
0000
0101
0000
0000
0000
,
0001
0000
1000
0100
0010
0001
1000
0000
0100
0000
0000
0000
1000
0000
0001
0000
,
1000
0000
0010
0100
0001
0100
0010
0000
1000
0000
0000
0000
0001
0000
1000
0000
,
0100
0000
0010
0001
0010
0100
1000
0000
0001
0000
0000
0000
1000
0000
0100
0000
,
0010
0000
0010
0001
1000
0100
0010
0000
0100
0000
0000
0000
0000
0000
0000
0000
,
0110
0000
0000
1000
0000
0010
0000
0100
0000
0000
0001
0000
0010
0000
0001
0000
,
0011
0000
0000
0100
0000
0001
0000
0100
0000
0000
0010
0000
1000
0000
0001
0000
,
1001
0000
0000
0010
0000
0100
0000
0010
0000
0000
0100
0000
0010
0000
1000
0000
,
1000
0100
0000
0100
0000
0010
0000
0010
0000
0000
0001
0000
0010
0000
0100
0000
,
1100
0000
0000
1000
0000
0001
0000
0100
0000
0000
0010
0000
0100
0000
0001
0000
,
1001
0000
0000
1000
0000
0010
0000
0100
0000
0000
0001
0000
1000
0000
0100
0000
,
1100
0000
0000
1000
0000
0100
0000
0010
0000
0000
0001
0000
0010
0000
0100
0000
,
1000
0000
0001
1000
0000
1000
0000
0010
0100
0000
0100
0001
0000
0001
0000
0001
,
1000
0010
0001
0010
1000
0010
0001
0010
,
1000
1100
0001
0101
1000
1010
0001
0011
,
0001
0010
1000
0010
0001
0010
1000
0010
,
0001
0011
1000
1010
0001
0101
1000
1100
,
1000
0100
0010
0100
1000
0100
0010
0100
,
0010
0011
0100
0110
1000
1010
0001
0101
,
0010
0001
0010
0100
0010
0001
0010
0100
,
1000
1001
0001
0101
0100
0110
0010
1010
,
1000
0100
0010
0001
0020
0100
0130
0000
,
1000
0001
0100
0010
0200
0010
0310
0000
,
1000
0010
0100
0001
2000
0100
3100
0000
,
0001
0010
0100
1000
0200
1000
1300
0000
;

//---------------dance-single - ----------------
#NOTEDATA:;
#CHARTNAME:;
#STEPSTYPE:dance-single;
#DESCRIPTION:;
#CHARTSTYLE:Pad;
#DIFFICULTY:Challenge;
#METER:11;
#RADARVALUES:0.476165,0.488880,0.108219,0.346302,0.443699,266.000000,10.000000,32.000000,0.000000,0.000000,0.000000,0.000000,0.000000,0.476165,0.488880,0.108219,0.346302,0.443699,266.000000,10.000000,32.000000,0.000000,0.000000,0.000000,0.000000,0.000000;
#CREDIT:chewi;
#NOTES:
0000
0000
0000
0000
,
0000
0000
0000
0000
,
0001
0000
0000
0000
1000
0001
0000
0001
0000
0000
0100
0000
0010
0000
1000
0000
,
0100
0000
0000
0000
0010
0001
0000
0001
0000
0000
0100
0000
0010
0000
1000
0000
,
0001
0000
0000
0000
1000
0010
0000
0010
0000
0000
1000
0000
0001
0000
1000
0000
,
0100
0000
0000
0000
0010
0100
0000
0100
0000
0000
0010
0000
0001
0000
1000
0000
,
0100
0000
0000
0000
1000
0001
0000
0001
0000
0000
0000
0000
1001
0000
0000
0000
,
1000
0000
0010
0100
0001
0100
0010
0000
1000
0000
0000
0000
0001
0000
0010
0000
,
0100
0000
1000
0100
0010
0001
1000
0000
0100
0000
0000
0000
1000
0000
0001
0000
,
0100
0000
0010
0100
0001
0100
0010
0000
1000
0000
0000
0000
0100
0000
1000
0000
,
0010
0000
1000
0001
0100
0001
1000
0000
0001
0000
0000
0000
0101
0000
0000
0000
,
0001
0000
1000
0100
0010
0001
1000
0000
0100
0000
0000
0000
1000
0000
0001
0000
,
1000
0000
0010
0100
0001
0100
0010
0000
1000
0000
0000
0000
0001
0000
1000
0000
,
0100
0000
0010
0001
0010
0100
1000
0000
0001
0000
0000
0000
1000
0000
0100
0000
,
0010
0000
0010
0001
1000
0100
0010
0000
0100
0000
0000
0000
0000
0000
0000
0000
,
0110
0000
0000
1000
0000
0010
0000
0100
0000
0000
0001
0000
0010
0000
0001
0000
,
0011
0000
0000
0100
0000
0001
0000
0100
0000
0000
0010
0000
1000
0000
0001
0000
,
1001
0000
0000
0010
0000
0100
0000
0010
0000
0000
0100
0000
0010
0000
1000
0000
,
1000
0100
0000
0100
0000
0010
0000
0010
0000
0000
0001
0000
0010
0000
0100
0000
,
1100
0000
0000
1000
0000
0001
0000
0100
0000
0000
0010
0000
0100
0000
0001
0000
,
1001
0000
0000
1000
0000
0010
0000
0100
0000
0000
0001
0000
1000
0000
0100
0000
,
1100
0000
0000
1000
0000
0100
0000
0010
0000
0000
0001
0000
0010
0000
0100
0000
,
1000
0000
0001
1000
0000
1000
0000
0010
0100
0000
0100
0001
0000
0001
0000
0001
,
1000
0000
0010
0100
0000
0100
0000
0001
1000
0000
1000
0100
0000
0100
0000
0000
,
2000
3200
0320
0032
2003
3200
2300
3200
,
1300
0000
0001
0100
0000
0100
0000
0010
1000
0000
1000
0010
0000
0010
0000
0000
,
0200
0320
2030
3002
0023
0230
2300
3002
,
1003
0000
0100
0010
0000
0010
0000
0001
1000
0000
0001
0100
0000
0100
0000
0000
,
0020
2030
3002
0203
0320
2030
3002
0023
,
0130
0000
0010
0001
0000
0001
0000
1000
0100
0000
1000
0001
0000
0001
0000
0000
,
2000
3002
0023
0230
2300
3020
0230
0302
,
1003
0000
0010
0100
0001
0100
0010
1000
0001
0000
1000
0000
0100
0000
0000
0000
,
0010
0000
0001
0000
1000
0000
0100
0000
1000
0001
0100
0000
0110
0000
0000
0000
,
0010
0000
0100
0000
0001
0000
1000
0010
0100
0001
1000
0100
0010
0000
0000
0000
,
0010
0000
0001
0000
1000
0000
0100
0000
0010
0100
1000
0000
1001
0000
0000
0000
;
