#TITLE:硬地女孩;
#SUBTITLE:;
#ARTIST:潘嘉麗;
#TITLETRANSLIT:Independent Girl;
#SUBTITLETRANSLIT:;
#ARTISTTRANSLIT:Kelly Poon;
#GENRE:Pop;
#CREDIT:chewi;
#BANNER:Independent Girl.png;
#BACKGROUND:Independent Girl-bg.png;
#LYRICSPATH:;
#CDTITLE:cdtitle.png;
#MUSIC:Independent Girl.ogg;
#OFFSET:-2.073276;
#SAMPLESTART:47.601002;
#SAMPLELENGTH:15.000000;
#SELECTABLE:YES;
#BPMS:0.000000=125.000000
;
#STOPS:
;
#BGCHANGES:;
#KEYSOUNDS:;
#ATTACKS:;

//---------------dance-single - ----------------
#NOTES:
     dance-single:
     :
     Easy:
     4:
     0.181211,0.263268,0.059834,0.143601,0.000000,106.000000,101.000000,5.000000,12.000000,0.000000,0.000000,0.181211,0.263268,0.059834,0.143601,0.000000,106.000000,101.000000,5.000000,12.000000,0.000000,0.000000:
0000
0000
0000
0000
,
0000
0000
0000
0000
,
0000
0000
0000
0000
,
0000
0000
0000
0000
,
0020
0000
0000
0030
,
0200
0000
0000
0300
,
2000
0000
0000
3000
,
0002
0000
0000
0003
,
1000
0010
1000
0000
,
0001
0100
0001
0000
,
1000
0100
1000
0000
,
0001
0010
0001
0000
,
0010
0100
0010
0000
,
0100
0010
0100
0000
,
1000
0001
1000
0000
,
0001
1000
0001
0000
,
2000
0000
0000
3000
,
0020
0000
0000
0030
,
0200
0000
0000
0300
,
0002
0000
0000
0003
,
2000
0000
0000
3000
,
0200
0000
0000
0300
,
0020
0000
0000
0030
,
0002
0000
0000
0003
,
0001
0001
1000
1000
,
0001
1000
0001
1001
,
0100
0100
0010
0010
,
0100
0010
0100
0110
,
0010
0010
1000
1000
,
0010
1000
0010
1001
,
1000
1000
0100
0100
,
1000
0100
1000
1001
,
0010
0100
1000
0001
,
0010
0010
0010
0010
,
0100
1000
0001
0010
,
0001
0001
0001
0001
,
1000
0001
0100
0010
,
1000
0001
0001
0001
,
1000
0100
0010
0001
,
1000
1000
1000
1000
,
1001
0000
0000
0000
;

//---------------dance-single - ----------------
#NOTES:
     dance-single:
     :
     Beginner:
     2:
     0.095734,0.143601,0.011967,0.143601,0.000000,56.000000,55.000000,1.000000,12.000000,0.000000,0.000000,0.095734,0.143601,0.011967,0.143601,0.000000,56.000000,55.000000,1.000000,12.000000,0.000000,0.000000:
// measure 0
0000
0000
0000
0000
,  // measure 1
0000
0000
0000
0000
,  // measure 2
0000
0000
0000
0000
,  // measure 3
0000
0000
0000
0000
,  // measure 4
2000
0000
0000
3000
,  // measure 5
2000
0000
0000
3000
,  // measure 6
0002
0000
0000
0003
,  // measure 7
0002
0000
0000
0003
,  // measure 8
0001
0000
0000
0000
,  // measure 9
1000
0000
0000
0000
,  // measure 10
0100
0000
0000
0000
,  // measure 11
0010
0000
0010
0000
,  // measure 12
0010
0000
0000
0000
,  // measure 13
0001
0000
0000
0000
,  // measure 14
1000
0000
0000
0000
,  // measure 15
0010
0000
0010
0000
,  // measure 16
0020
0000
0000
0030
,  // measure 17
0020
0000
0000
0030
,  // measure 18
0200
0000
0000
0300
,  // measure 19
0200
0000
0000
0300
,  // measure 20
2000
0000
0000
3000
,  // measure 21
2000
0000
0000
3000
,  // measure 22
0002
0000
0000
0003
,  // measure 23
0002
0000
0000
0003
,  // measure 24
0001
0000
0001
0000
,  // measure 25
0001
0000
0001
0000
,  // measure 26
1000
0000
1000
0000
,  // measure 27
1000
0000
1000
0000
,  // measure 28
0010
0000
0010
0000
,  // measure 29
0010
0000
0010
0000
,  // measure 30
0100
0000
0100
0000
,  // measure 31
0100
0000
0100
0000
,  // measure 32
0010
0000
0010
0000
,  // measure 33
0010
0000
0010
0000
,  // measure 34
1000
0000
1000
0000
,  // measure 35
1000
0000
1000
0000
,  // measure 36
0001
0000
0001
0000
,  // measure 37
0001
0000
0001
0000
,  // measure 38
1000
0000
1000
0000
,  // measure 39
0001
0000
0001
0000
,  // measure 40
1001
0000
0000
0000
;

//---------------dance-single - ----------------
#NOTES:
     dance-single:
     :
     Medium:
     6:
     0.223949,0.311135,0.203434,0.095734,0.000000,131.000000,114.000000,17.000000,8.000000,0.000000,0.000000,0.223949,0.311135,0.203434,0.095734,0.000000,131.000000,114.000000,17.000000,8.000000,0.000000,0.000000:
0000
0000
0000
0000
,
0000
0000
0000
0000
,
0000
0000
0000
0000
,
0000
0000
0000
0000
,
2000
0000
0000
0000
,
3002
0000
0000
0000
,
0203
0000
0000
0000
,
0320
0000
0000
0000
,
0030
1000
0001
1000
,
0000
0010
1000
0001
,
0000
1000
0001
0010
,
0000
0001
1000
0100
,
1000
0100
0010
0001
,
0000
0010
0001
0100
,
0000
0010
1000
0100
,
1000
0001
1000
1001
,
0002
1000
0010
1000
,
0010
1000
0010
1003
,
2000
0001
0010
0001
,
0010
0001
0010
3001
,
0002
0100
0010
0100
,
0010
0100
0010
0103
,
2000
0100
0010
0100
,
0010
0000
0100
0000
0010
0000
3100
0010
,
0000
0000
0000
0010
0000
0000
0000
0010
,
0000
0000
0000
0010
0000
0000
0000
0000
,
0110
0110
1001
1001
,
1000
0100
0010
0001
,
0001
0000
0000
0001
0000
0000
0000
0001
,
0000
0000
0000
0001
0000
0000
0001
0000
,
1001
1001
1100
1100
,
1000
0100
0010
0001
,
0100
0000
0000
0100
0000
0000
0000
0100
,
0000
0000
0000
0100
0000
0000
0100
0000
,
0110
0110
1001
1001
,
1000
0001
0100
0010
,
1000
0000
0000
1000
0000
0000
0000
1000
,
0000
0000
0000
1000
0000
0000
1000
0000
,
1100
1100
0101
0101
,
0100
0010
1000
0001
,
0001
0000
0000
0000
;

//---------------dance-single - ----------------
#NOTES:
     dance-single:
     :
     Hard:
     10:
     0.370969,0.406869,0.083767,0.095734,0.000000,217.000000,210.000000,7.000000,8.000000,0.000000,0.000000,0.370969,0.406869,0.083767,0.095734,0.000000,217.000000,210.000000,7.000000,8.000000,0.000000,0.000000:
0000
0000
0000
0000
,
0000
0000
0000
0000
,
0000
0000
0000
0000
,
0000
0000
0000
0000
,
2001
0000
0000
0000
,
3020
0000
0000
0000
,
0230
0000
0000
0000
,
0302
0000
0000
0000
,
0003
1000
0001
1000
0100
1000
0001
1000
,
0000
0001
1000
0001
0100
0001
1000
0001
,
0000
0010
0100
1000
0001
0010
0100
0010
,
0001
1000
0100
0000
1000
0001
0100
0000
,
0000
0100
0010
0100
0001
0100
0010
0100
,
0000
0010
0100
0010
1000
0010
0100
0010
,
0000
1000
0010
0100
0001
1000
0100
0010
,
0001
1000
0100
0000
1000
0000
1001
0000
,
0120
0001
0100
1000
,
2030
0100
0001
0100
,
3002
0010
1000
0100
,
2003
0010
0100
3010
,
0010
0100
0010
0000
0100
0010
0100
0000
,
0001
0100
0001
0000
0100
0001
0100
0000
,
0001
0010
0100
1000
0001
0010
0100
1000
,
1001
0110
1001
0110
,
0010
0001
0100
0000
0100
0001
0010
0000
,
0100
1000
0010
0000
0010
1000
0100
0000
,
1000
0100
0010
0001
1000
0100
1000
0100
,
1000
0010
0100
0001
0100
0001
0100
0001
,
0100
0010
1000
0000
0010
0100
0001
0000
,
1000
0100
0010
0000
0001
0010
0100
0000
,
0010
0100
0010
0100
1000
0001
1000
0001
,
1000
0010
1000
0010
0100
0001
0100
0001
,
0100
0010
1000
0000
0001
0100
0010
0000
,
1000
0001
0010
0000
0001
1000
0100
0000
,
1000
0001
1000
0100
1000
0001
1000
0100
,
1000
0001
0010
0001
1000
0001
0010
0001
,
0010
0001
0010
0000
0100
0010
0100
0000
,
0100
1000
0100
0000
1000
0100
1000
0000
,
0001
1000
0100
1000
0001
0100
0001
1000
,
0100
1000
0001
0100
1000
0100
0001
1000
,
0001
0000
0000
0000
;
