#VERSION:0.83;
#TITLE:In My Arms;
#SUBTITLE:;
#ARTIST:Kylie Minogue;
#TITLETRANSLIT:;
#SUBTITLETRANSLIT:;
#ARTISTTRANSLIT:;
#GENRE:Pop;
#ORIGIN:;
#CREDIT:hooky & chewi;
#BANNER:In My Arms.png;
#BACKGROUND:In My Arms-bg.png;
#PREVIEWVID:;
#JACKET:In My Arms-jacket.png;
#CDIMAGE:;
#DISCIMAGE:;
#LYRICSPATH:;
#CDTITLE:cdtitle.png;
#MUSIC:In My Arms.ogg;
#OFFSET:-0.214000;
#SAMPLESTART:58.339001;
#SAMPLELENGTH:15.000000;
#SELECTABLE:YES;
#BPMS:0.000=128.000;
#STOPS:;
#DELAYS:;
#WARPS:;
#TIMESIGNATURES:0.000=4=4;
#TICKCOUNTS:0.000=4;
#COMBOS:0.000=1;
#SPEEDS:0.000=1.000=0.000=0;
#SCROLLS:0.000=1.000;
#FAKES:;
#LABELS:0.000=Song Start;
#BGCHANGES:-0.214=In My Arms.avi=1.000=1=0=1===CrossFade==,
195.500=In My Arms-bg.png=1.000=1=0=1===CrossFade==,
99999=-nosongbg-=1.000=0=0=0 // don't automatically add -songbackground-
;
#KEYSOUNDS:;
#ATTACKS:
;

//---------------dance-single - ----------------
#NOTEDATA:;
#CHARTNAME:;
#STEPSTYPE:dance-single;
#DESCRIPTION:;
#CHARTSTYLE:;
#DIFFICULTY:Beginner;
#METER:2;
#RADARVALUES:0.109062,0.176880,0.064515,0.086021,0.000000,71.000000,65.000000,6.000000,8.000000,0.000000,0.000000,0.000000,0.000000,0.000000,0.109062,0.176880,0.064515,0.086021,0.000000,71.000000,65.000000,6.000000,8.000000,0.000000,0.000000,0.000000,0.000000,0.000000;
#CREDIT:;
#NOTES:
// measure 0
0000
0000
0000
0000
,  // measure 1
0000
0000
0000
0000
,  // measure 2
0000
0000
0000
0000
,  // measure 3
0000
0000
0000
0000
,  // measure 4
0000
1000
0000
0000
,  // measure 5
0000
0001
0000
0000
,  // measure 6
0000
1000
0000
0000
,  // measure 7
0000
0001
0000
0000
,  // measure 8
0000
0100
0000
0000
,  // measure 9
0000
0010
0000
0110
,  // measure 10
2000
0000
0000
3000
,  // measure 11
1000
0000
1000
0000
,  // measure 12
0002
0000
0000
0003
,  // measure 13
0001
0000
0001
0000
,  // measure 14
0100
0000
0100
0000
,  // measure 15
0100
0000
0000
0000
,  // measure 16
0010
0000
0010
0000
,  // measure 17
0010
0000
0000
0000
,  // measure 18
1000
0000
1000
0000
,  // measure 19
1000
0000
0000
0000
,  // measure 20
0001
0000
0001
0000
,  // measure 21
0001
0000
0000
0000
,  // measure 22
1001
0000
0000
0000
,  // measure 23
1000
1000
1000
0000
,  // measure 24
1001
0000
0000
0000
,  // measure 25
0001
0001
0001
0000
,  // measure 26
0110
0000
0000
0000
,  // measure 27
0100
0100
0100
0000
,  // measure 28
0110
0000
0000
0000
,  // measure 29
0010
0010
0010
0000
,  // measure 30
0010
0010
0010
0000
,  // measure 31
1000
0000
1000
0000
,  // measure 32
2000
0000
0000
3000
,  // measure 33
0001
0000
0001
0000
,  // measure 34
0002
0000
0000
0003
,  // measure 35
0100
0000
0100
0000
,  // measure 36
0200
0000
0000
0300
,  // measure 37
0010
0000
0010
0000
,  // measure 38
0020
0000
0000
0030
,  // measure 39
0010
0000
0000
0000
,  // measure 40
0100
0000
0000
0000
,  // measure 41
0001
0000
0000
0000
,  // measure 42
1000
0000
0000
0000
,  // measure 43
0002
0000
0000
0003
,  // measure 44
0001
0000
0000
0000
,  // measure 45
2000
0000
0000
3000
,  // measure 46
1000
0000
0000
0000
,  // measure 47
1001
0000
0000
0000
;

//---------------dance-single - ----------------
#NOTEDATA:;
#CHARTNAME:;
#STEPSTYPE:dance-single;
#DESCRIPTION:;
#CHARTSTYLE:;
#DIFFICULTY:Medium;
#METER:7;
#RADARVALUES:0.310289,0.366932,0.215051,0.172041,0.000000,202.000000,182.000000,20.000000,16.000000,0.000000,0.000000,0.000000,0.000000,0.000000,0.310289,0.366932,0.215051,0.172041,0.000000,202.000000,182.000000,20.000000,16.000000,0.000000,0.000000,0.000000,0.000000,0.000000;
#CREDIT:;
#NOTES:
// measure 0
0000
0000
0000
0000
,  // measure 1
0000
0000
0000
0000
,  // measure 2
0000
0000
0000
0000
,  // measure 3
0000
0000
0000
0000
,  // measure 4
2000
3100
0002
0103
,  // measure 5
2000
3010
0002
0013
,  // measure 6
0002
1003
2000
3001
,  // measure 7
0200
0310
0020
0130
,  // measure 8
0010
1000
0010
1000
,  // measure 9
0001
0100
0001
0100
,  // measure 10
1001
1000
0000
0001
0001
0000
0000
0000
,  // measure 11
1000
1000
0000
0000
1000
0000
0100
0000
,  // measure 12
0010
0010
0000
0001
0001
0000
0000
0000
,  // measure 13
0010
0010
0000
0000
0001
0000
0100
0000
,  // measure 14
0010
0100
0001
1000
,  // measure 15
0101
1100
0000
0000
,  // measure 16
0000
1000
0100
0010
,  // measure 17
0100
1000
0000
0000
,  // measure 18
0000
1000
0001
0100
,  // measure 19
0110
1010
0000
0000
,  // measure 20
0000
0100
0001
1000
,  // measure 21
0100
0000
0000
0100
,  // measure 22
2000
3100
0002
0103
,  // measure 23
2000
3010
0002
0013
,  // measure 24
2000
3100
0002
0103
,  // measure 25
2000
3010
0002
0013
,  // measure 26
0001
0010
0100
1000
,  // measure 27
0001
0000
0100
0000
0010
0010
0010
0000
,  // measure 28
0100
0010
0100
0001
,  // measure 29
0010
0010
0100
0100
,  // measure 30
1000
1000
0001
1001
,  // measure 31
1000
1000
0000
0001
0001
0000
1001
0000
,  // measure 32
0001
0001
0000
0100
0100
0000
0110
0000
,  // measure 33
0010
0010
0000
1000
1000
0000
1010
0000
,  // measure 34
0010
0010
0000
0100
0100
0000
0110
0000
,  // measure 35
0010
0010
0000
1000
1000
0000
1010
0000
,  // measure 36
1000
1000
0000
0001
0001
0000
1001
0000
,  // measure 37
0001
0001
0000
0010
0010
0000
0011
0000
,  // measure 38
0100
0100
0000
1000
1000
0000
1100
0000
,  // measure 39
0010
0100
1000
1100
,  // measure 40
0010
0100
0001
0101
,  // measure 41
0100
0010
1000
1000
,  // measure 42
0100
0010
0001
0001
,  // measure 43
1000
1000
0000
0001
0001
0000
0101
0000
,  // measure 44
0001
0001
0000
1000
1000
0000
1100
0000
,  // measure 45
0100
0100
0000
0010
0010
0000
0110
0000
,  // measure 46
0010
0010
0000
0100
0100
0000
0110
0000
,  // measure 47
0100
0100
0100
0100
,  // measure 48
0100
0100
0100
0100
;

//---------------dance-single - ----------------
#NOTEDATA:;
#CHARTNAME:;
#STEPSTYPE:dance-single;
#DESCRIPTION:;
#CHARTSTYLE:;
#DIFFICULTY:Easy;
#METER:4;
#RADARVALUES:0.190474,0.235885,0.064515,0.086021,0.000000,124.000000,118.000000,6.000000,8.000000,0.000000,0.000000,0.000000,0.000000,0.000000,0.190474,0.235885,0.064515,0.086021,0.000000,124.000000,118.000000,6.000000,8.000000,0.000000,0.000000,0.000000,0.000000,0.000000;
#CREDIT:;
#NOTES:
// measure 0
0000
0000
0000
0000
,  // measure 1
0000
0000
0000
0000
,  // measure 2
0000
0000
0000
0000
,  // measure 3
0000
0000
0000
0000
,  // measure 4
2000
3001
0000
0001
,  // measure 5
0000
0001
0000
0001
,  // measure 6
0000
0002
0000
1000
,  // measure 7
0000
1000
0000
1000
,  // measure 8
0203
0010
0000
0010
,  // measure 9
0320
0100
0000
0130
,  // measure 10
0010
0000
0010
0000
,  // measure 11
0100
0000
0100
0000
,  // measure 12
0001
0000
0001
0000
,  // measure 13
1000
0000
1000
0000
,  // measure 14
1000
1000
0100
0000
,  // measure 15
0001
0001
0100
0000
,  // measure 16
1000
1000
0010
0000
,  // measure 17
0001
0001
0010
0000
,  // measure 18
0001
0010
0100
0000
,  // measure 19
1000
0010
0100
0000
,  // measure 20
0001
0100
0010
0000
,  // measure 21
1000
0100
0010
0000
,  // measure 22
0001
0001
0001
0000
,  // measure 23
0001
1000
0001
0000
,  // measure 24
1000
1000
1000
0000
,  // measure 25
1000
0001
1000
0000
,  // measure 26
0010
0010
0010
0000
,  // measure 27
0010
0100
0010
0000
,  // measure 28
0100
0100
0100
0000
,  // measure 29
0100
0010
0100
0000
,  // measure 30
0010
0100
0010
0000
,  // measure 31
0110
0000
0000
0000
,  // measure 32
1001
0000
0000
0000
,  // measure 33
1000
0100
0010
0001
,  // measure 34
1000
0000
0001
0000
,  // measure 35
1001
0000
0000
0000
,  // measure 36
0110
0000
0000
0000
,  // measure 37
0100
0010
1000
0001
,  // measure 38
1000
0000
0001
0000
,  // measure 39
2000
0000
0010
3000
,  // measure 40
0002
0000
0010
0003
,  // measure 41
2000
0000
0100
3000
,  // measure 42
0002
0000
0100
0003
,  // measure 43
0110
0000
0100
0000
,  // measure 44
0100
0010
1000
0001
,  // measure 45
1001
0000
0001
0000
,  // measure 46
0010
0100
1000
0001
,  // measure 47
0001
0001
0001
0001
,  // measure 48
0001
0001
0001
0001
;

//---------------dance-single - ----------------
#NOTEDATA:;
#CHARTNAME:;
#STEPSTYPE:dance-single;
#DESCRIPTION:;
#CHARTSTYLE:;
#DIFFICULTY:Hard;
#METER:10;
#RADARVALUES:0.451608,0.472979,0.247309,0.129031,0.000000,294.000000,271.000000,23.000000,12.000000,0.000000,0.000000,0.000000,0.000000,0.000000,0.451608,0.472979,0.247309,0.129031,0.000000,294.000000,271.000000,23.000000,12.000000,0.000000,0.000000,0.000000,0.000000,0.000000;
#CREDIT:;
#NOTES:
// measure 0
0000
0000
0000
0000
,  // measure 1
0000
0000
0000
0000
,  // measure 2
0000
0000
0000
0000
,  // measure 3
0000
0000
0000
0000
,  // measure 4
0001
0001
0001
0000
0000
0000
0001
0000
,  // measure 5
0000
0001
0000
0001
,  // measure 6
0000
0000
0001
0010
0001
0010
0001
0010
,  // measure 7
0001
1000
0001
1000
0010
1000
0100
1000
,  // measure 8
0001
0100
0010
0010
0100
0010
1000
0001
,  // measure 9
1000
1000
0001
0010
0001
0100
0101
0000
,  // measure 10
0001
0001
0000
0100
0100
0000
0110
0000
,  // measure 11
0010
1000
0100
0000
0010
0010
0001
0001
,  // measure 12
1000
1000
0000
0010
0010
0000
1010
0000
,  // measure 13
1000
0001
1000
0000
0001
0001
1000
1000
,  // measure 14
0001
0000
0001
0010
0001
1000
0010
0100
,  // measure 15
0001
0100
0001
0000
1000
1000
0001
0001
,  // measure 16
0100
0001
0010
0100
1000
0010
0001
0010
,  // measure 17
1000
0010
0001
0000
0010
0010
0100
0100
,  // measure 18
0001
1000
0001
0100
0001
0010
0001
0010
,  // measure 19
0100
1000
0001
0000
0001
0010
0100
1000
,  // measure 20
0001
1000
0001
0010
0100
1000
0010
0001
,  // measure 21
0010
1000
0010
0000
0010
1000
0001
0010
,  // measure 22
0200
0000
0310
0002
0000
0000
0013
0020
,  // measure 23
0000
0000
0130
0010
0002
0200
0000
0303
,  // measure 24
0010
0000
0100
0002
0010
0000
0013
0200
,  // measure 25
0000
0000
1300
2000
0010
0000
3010
0000
,  // measure 26
1000
0000
0010
1000
2000
0000
3100
0200
,  // measure 27
0000
0000
1300
0020
1000
2000
3030
0000
,  // measure 28
0010
0100
0010
0010
1000
0100
0010
0010
,  // measure 29
0001
0100
0001
0100
0001
1000
0001
1000
,  // measure 30
0001
0010
0001
0010
0001
0001
0011
0000
,  // measure 31
0001
0100
0000
0010
1000
0000
1100
0000
,  // measure 32
0010
1000
0000
1000
0100
0000
0011
0000
,  // measure 33
0010
0100
0000
0100
1000
0000
1100
0000
,  // measure 34
0100
1000
0000
0001
0100
0000
1001
0000
,  // measure 35
1000
0010
0000
0010
0100
0000
0101
0000
,  // measure 36
0100
0001
0000
0001
0100
0000
1010
0000
,  // measure 37
1000
0100
0000
0100
1000
0000
1100
0000
,  // measure 38
0100
0010
0000
0001
1000
0000
1001
0000
,  // measure 39
0011
0000
0010
0010
1100
0000
1010
0000
,  // measure 40
1000
0010
0100
0001
0101
0000
0110
0000
,  // measure 41
0100
0001
0010
0100
1100
0000
1010
0000
,  // measure 42
1000
1000
1000
0010
1000
0100
1000
0010
,  // measure 43
0100
0100
0000
0001
0001
0000
0101
0000
,  // measure 44
0100
0100
0000
0010
0010
0000
1010
0000
,  // measure 45
1000
0100
0000
0100
0010
0000
0011
0000
,  // measure 46
1000
1000
0000
0010
1000
0000
1100
0000
,  // measure 47
0100
0100
0100
0100
0100
0100
0100
0100
,  // measure 48
0100
0100
0100
0100
0100
0100
0100
0100
;
