#VERSION:0.83;
#TITLE:今のキミを忘れない;
#SUBTITLE:;
#ARTIST:ナオト・インティライミ;
#TITLETRANSLIT:Ima no Kimi wo Wasurenai;
#SUBTITLETRANSLIT:;
#ARTISTTRANSLIT:NAOTO INTI RAYMI;
#GENRE:Pop;
#ORIGIN:;
#CREDIT:chewi;
#BANNER:Ima no Kimi wo Wasurenai.png;
#BACKGROUND:Ima no Kimi wo Wasurenai-bg.png;
#PREVIEWVID:;
#JACKET:Ima no Kimi wo Wasurenai-jacket.png;
#CDIMAGE:;
#DISCIMAGE:;
#LYRICSPATH:;
#CDTITLE:cdtitle.png;
#MUSIC:Ima no Kimi wo Wasurenai.ogg;
#OFFSET:-0.032000;
#SAMPLESTART:66.651001;
#SAMPLELENGTH:15.000000;
#SELECTABLE:YES;
#BPMS:0.000=113.000;
#STOPS:;
#DELAYS:;
#WARPS:;
#TIMESIGNATURES:0.000=4=4;
#TICKCOUNTS:0.000=4;
#COMBOS:0.000=1;
#SPEEDS:0.000=1.000=0.000=0;
#SCROLLS:0.000=1.000;
#FAKES:;
#LABELS:0.000=Song Start;
#BGCHANGES:-0.500=Ima no Kimi wo Wasurenai.avi=1.000=0=0=1=====,
99999=-nosongbg-=1.000=0=0=0 // don't automatically add -songbackground-
;
#KEYSOUNDS:;
#ATTACKS:
;

//---------------dance-single - ----------------
#NOTEDATA:;
#CHARTNAME:;
#STEPSTYPE:dance-single;
#DESCRIPTION:;
#CHARTSTYLE:;
#DIFFICULTY:Hard;
#METER:8;
#RADARVALUES:0.304704,0.355488,0.066654,0.088872,0.000000,192.000000,186.000000,6.000000,8.000000,0.000000,0.000000,0.000000,0.000000,0.000000,0.304704,0.355488,0.066654,0.088872,0.000000,192.000000,186.000000,6.000000,8.000000,0.000000,0.000000,0.000000,0.000000,0.000000;
#CREDIT:;
#NOTES:
0000
0000
0000
0000
,
0000
0000
0000
0000
,
0000
0000
0000
0000
,
0000
0000
0000
0000
,
1000
0000
0000
1100
0000
0000
0000
0000
,
0001
0000
0000
0101
0000
0000
0110
0000
,
0220
0000
0000
0330
,
0010
1000
0001
0000
0010
0001
1000
0000
,
0001
0010
0100
1000
0001
0010
0100
1000
,
0001
0000
0000
0000
,
1000
0010
0100
0001
1000
0010
0100
0001
,
1000
0000
0000
0000
,
0100
0010
0001
1000
0100
0000
0010
0001
,
0000
1000
0100
0010
0001
0000
0000
1000
,
0010
0001
0010
1000
0010
0001
0010
0010
,
0020
0100
1000
0130
,
0010
0100
0001
1000
0100
0010
0001
1000
,
0100
0000
0000
0000
,
0100
0010
0001
1000
0100
0010
0001
1000
,
0001
0000
0000
0000
,
0001
0100
0010
1000
0001
0000
0000
0100
,
0010
1000
0001
0100
0010
0000
0000
1000
,
0001
0100
0010
1000
0001
0010
0100
1000
,
0002
1000
0010
1003
,
1000
0000
0100
0000
0010
0001
0100
0000
,
0001
0000
0100
0000
0010
1000
0100
0000
,
1000
0000
0001
0000
1000
0100
0010
0001
,
1000
0000
0001
0000
1000
0010
0100
0001
,
0100
0000
0010
0000
1000
0100
0010
0000
,
0001
0000
0010
0000
0100
1000
0001
0000
,
1000
0000
0010
0000
0100
0001
0100
0010
,
1000
0000
0001
0000
0010
0001
0100
0010
,
1000
0000
0001
0000
1000
0100
0010
0000
,
0001
0000
1000
0000
0001
0010
0100
0000
,
1000
0000
0010
0000
1000
0001
0010
0100
,
1000
0000
1000
0000
0100
0000
0010
0001
,
1000
0100
1000
0010
0100
0000
0101
0000
,
0001
0010
0001
0100
0001
0000
1001
0000
,
0010
0100
1000
0010
0100
0001
0010
0100
,
0020
0230
2300
3002
,
1003
0000
0000
0000
;

//---------------dance-single - ----------------
#NOTEDATA:;
#CHARTNAME:;
#STEPSTYPE:dance-single;
#DESCRIPTION:;
#CHARTSTYLE:;
#DIFFICULTY:Medium;
#METER:6;
#RADARVALUES:0.238050,0.311052,0.166635,0.144417,0.000000,150.000000,135.000000,15.000000,13.000000,0.000000,0.000000,0.000000,0.000000,0.000000,0.238050,0.311052,0.166635,0.144417,0.000000,150.000000,135.000000,15.000000,13.000000,0.000000,0.000000,0.000000,0.000000,0.000000;
#CREDIT:;
#NOTES:
0000
0000
0000
0000
,
0000
0000
0000
0000
,
0000
0000
0000
0000
,
0000
0000
0000
0000
,
2000
0000
0000
3100
0000
0000
0000
0000
,
0002
0000
0000
0103
0000
0000
0100
0000
,
0220
0000
0000
0330
,
0110
1001
0110
1001
,
2000
3100
2000
3001
,
1001
0000
0000
0000
0010
0100
0010
0000
,
0002
0103
0002
1003
,
1001
0000
0000
0000
0100
0010
0100
0000
,
0010
1000
0100
0001
,
0010
0100
1000
1100
,
0010
0001
0100
1000
,
0010
0100
0101
0000
,
1000
0100
0100
0100
,
0110
0000
0000
0000
0010
0001
0010
0000
,
0001
0100
0100
0100
,
0110
0000
0000
0000
0010
1000
0010
0000
,
1000
0100
0001
0100
,
1000
0001
0100
1000
,
0100
0001
0100
1000
,
0020
0000
0000
0030
,
0001
0001
0001
0101
,
1000
1000
1000
1010
,
0001
0010
1000
0100
,
0001
0010
0100
1000
,
0001
0001
0001
0011
,
1000
1000
1000
1010
,
0010
0001
0100
1000
,
0010
0001
0010
1000
,
0001
0100
0001
0100
,
0001
0010
0001
0010
,
1000
0010
1000
0010
,
1000
0100
1000
0100
,
0001
0100
0001
0100
,
0001
0010
0001
0010
,
0100
0010
0100
0010
,
2000
3200
0320
0032
,
1003
0000
0000
0000
;

//---------------dance-single - ----------------
#NOTEDATA:;
#CHARTNAME:;
#STEPSTYPE:dance-single;
#DESCRIPTION:;
#CHARTSTYLE:;
#DIFFICULTY:Easy;
#METER:3;
#RADARVALUES:0.111090,0.155526,0.022218,0.044436,0.000000,70.000000,68.000000,2.000000,4.000000,0.000000,0.000000,0.000000,0.000000,0.000000,0.111090,0.155526,0.022218,0.044436,0.000000,70.000000,68.000000,2.000000,4.000000,0.000000,0.000000,0.000000,0.000000,0.000000;
#CREDIT:;
#NOTES:
0000
0000
0000
0000
,
0000
0000
0000
0000
,
0000
0000
0000
0000
,
0000
0000
0000
0000
,
0002
0000
0000
0003
,
2000
0000
0000
3000
,
0200
0000
0000
0300
,
0010
0010
0010
0010
,
0010
0000
1000
0000
,
0010
0000
0000
0000
,
0100
0000
0001
0000
,
0100
0000
0000
0000
,
0001
0000
1000
0000
,
0100
0000
0000
0000
,
1000
0000
0001
0000
,
0010
0010
0010
0010
,
0001
0000
0010
0000
,
0100
0000
0000
0000
,
1000
0000
0100
0000
,
0010
0000
0000
0000
,
0001
0000
1000
0000
,
0010
0000
0010
0000
,
1000
0000
0001
0000
,
0020
0000
0000
0030
,
0010
0000
0001
0000
,
0100
0000
1000
0000
,
0010
0000
0001
0000
,
0010
0000
0110
0000
,
0010
0000
1000
0000
,
0100
0000
0001
0000
,
0010
0000
0100
0000
,
0010
0000
0110
0000
,
0010
0000
0001
1000
,
0001
0000
1000
0000
,
0100
0000
0010
0000
,
0001
0000
0000
0000
,
1000
0000
0001
1000
,
0001
0000
0100
0000
,
0010
0000
1000
0000
,
0001
0000
0000
0000
,
0001
0000
0000
0000
;

//---------------dance-single - ----------------
#NOTEDATA:;
#CHARTNAME:;
#STEPSTYPE:dance-single;
#DESCRIPTION:;
#CHARTSTYLE:;
#DIFFICULTY:Beginner;
#METER:1;
#RADARVALUES:0.068241,0.111090,0.000000,0.044436,0.000000,43.000000,43.000000,0.000000,4.000000,0.000000,0.000000,0.000000,0.000000,0.000000,0.068241,0.111090,0.000000,0.044436,0.000000,43.000000,43.000000,0.000000,4.000000,0.000000,0.000000,0.000000,0.000000,0.000000;
#CREDIT:;
#NOTES:
// measure 0
0000
0000
0000
0000
,  // measure 1
0000
0000
0000
0000
,  // measure 2
0000
0000
0000
0000
,  // measure 3
0000
0000
0000
0000
,  // measure 4
0000
1000
0000
1000
,  // measure 5
0000
1000
0000
1000
,  // measure 6
0000
0001
0000
0001
,  // measure 7
0000
0000
0000
0000
,  // measure 8
1000
0000
0000
0000
,  // measure 9
0001
0000
0000
0000
,  // measure 10
1000
0000
0000
0000
,  // measure 11
0001
0000
0000
0000
,  // measure 12
0100
0000
0000
0000
,  // measure 13
0010
0000
0000
0000
,  // measure 14
0100
0000
0000
0000
,  // measure 15
0010
0000
0000
0000
,  // measure 16
1000
0000
0000
0000
,  // measure 17
0100
0000
0000
0000
,  // measure 18
0010
0000
0000
0000
,  // measure 19
0001
0000
0000
0000
,  // measure 20
0001
0000
0000
0000
,  // measure 21
0100
0000
0000
0000
,  // measure 22
0010
0000
0000
0000
,  // measure 23
1000
0000
0000
0000
,  // measure 24
0020
0000
0000
0030
,  // measure 25
0010
0000
0000
0000
,  // measure 26
0200
0000
0000
0300
,  // measure 27
0100
0000
0000
0000
,  // measure 28
0002
0000
0000
0003
,  // measure 29
0001
0000
0000
0000
,  // measure 30
2000
0000
0000
3000
,  // measure 31
1000
0000
0000
0000
,  // measure 32
0001
0000
0001
0000
,  // measure 33
0001
0000
0000
0000
,  // measure 34
1000
0000
1000
0000
,  // measure 35
1000
0000
0000
0000
,  // measure 36
0100
0000
0100
0000
,  // measure 37
0100
0000
0000
0000
,  // measure 38
0010
0000
0010
0000
,  // measure 39
0010
0000
0000
0000
,  // measure 40
0010
0000
0000
0000
;
