#TITLE:威風堂々~チュートリアルより~;
#SUBTITLE:;
#ARTIST:Rb. Conductor;
#TITLETRANSLIT:Ifuudoudou -Tutorial yori-;
#SUBTITLETRANSLIT:;
#ARTISTTRANSLIT:;
#CREDIT:Chewi☆;
#BANNER:Ifuudoudou -Tutorial yori-.png;
#BACKGROUND:Ifuudoudou -Tutorial yori--bg.png;
#LYRICSPATH:;
#CDTITLE:;
#MUSIC:Ifuudoudou -Tutorial yori-.mp3;
#OFFSET:-0.404;
#SAMPLESTART:65.019;
#SAMPLELENGTH:15.000;
#SELECTABLE:YES;
#BPMS:0.000=104.000;
#STOPS:;
#BGCHANGES:;

//---------------dance-single - Chewi----------------
#NOTES:
     dance-single:
     Chewi:
     Beginner:
     1:
     0.062,0.104,0.035,0.000,0.000:
0000
0000
0000
0000
,
0000
0000
0000
0000
,
0000
0000
0000
0000
,
0000
0000
0000
0000
,
1000
0000
0000
0000
,
0001
0000
0000
0000
,
0100
0000
0000
0000
,
0010
0000
0000
0000
,
0010
0000
0000
0000
,
0100
0000
0000
0000
,
0001
0000
0000
0000
,
1000
0000
0000
0000
,
0001
0000
0000
0000
,
0001
0000
0000
0000
,
1000
0000
0000
0000
,
1000
0000
0000
0000
,
0010
0000
0000
0000
,
1000
0000
0000
0000
,
0001
0000
0000
0000
,
1000
0000
0000
0000
,
0100
0000
0000
0000
,
1000
0000
0000
0000
,
1000
0000
0000
0000
,
0001
0000
0000
0000
,
0100
0000
0000
0000
,
0010
0000
0000
0000
,
1000
0000
0000
0000
,
0010
0000
0000
0000
,
0110
0000
0000
0000
,
0010
0000
0000
0000
,
1001
0000
0000
0000
,
1000
0000
0000
0000
,
0001
0000
0000
0000
,
0001
0000
0000
0000
,
1000
0000
0000
0000
,
1000
0000
0000
0000
,
0110
0000
0000
0000
,
0100
0000
0000
0000
,
0110
0000
0000
0000
,
0010
0000
0000
0000
,
1000
0000
0000
0000
,
0100
0000
0000
0000
,
0010
0000
0000
0000
,
0001
0000
0000
0000
,
0100
0000
0000
0000
,
0010
0000
0000
0000
,
1000
0000
0000
0000
,
0001
0000
1000
0001
;

//---------------dance-single - Chewi----------------
#NOTES:
     dance-single:
     Chewi:
     Easy:
     3:
     0.176,0.187,0.070,0.000,0.000: // measure 1
0000
0000
0000
0000
,  // measure 2
0000
0000
0000
0000
,  // measure 3
0000
0000
0000
0000
,  // measure 4
0000
0000
0000
0000
,  // measure 5
1000
0001
1001
0000
,  // measure 6
0001
1000
1001
0000
,  // measure 7
0100
0010
0110
0000
,  // measure 8
0010
0100
0110
0000
,  // measure 9
0010
0010
0010
0000
,  // measure 10
0100
0100
0100
0000
,  // measure 11
0001
0001
0001
0000
,  // measure 12
1000
1000
1000
0000
,  // measure 13
0001
0010
1000
0100
,  // measure 14
0001
0100
1000
0000
,  // measure 15
1000
0010
0001
0100
,  // measure 16
1000
0100
0001
0000
,  // measure 17
0010
0100
1000
0000
,  // measure 18
1000
0010
0100
0000
,  // measure 19
0001
0100
0010
0000
,  // measure 20
1000
0001
0010
0000
,  // measure 21
0100
0010
0001
0000
,  // measure 22
1000
0100
0010
0001
,  // measure 23
1000
0100
0001
0000
,  // measure 24
0001
1000
0010
0100
,  // measure 25
0000
0100
0001
0010
,  // measure 26
0000
0010
0100
1000
,  // measure 27
0000
1000
0001
0100
,  // measure 28
0010
0100
0100
0010
,  // measure 29
0110
0000
0010
0010
,  // measure 30
0010
0000
0010
0000
,  // measure 31
1001
0000
1000
1000
,  // measure 32
1000
0000
1000
0000
,  // measure 33
0001
0100
0001
0000
,  // measure 34
0001
0010
0100
0000
,  // measure 35
1000
0100
1000
0000
,  // measure 36
1000
0010
1000
0000
,  // measure 37
0110
0000
0100
0100
,  // measure 38
0100
0000
0100
0000
,  // measure 39
0110
0000
0010
0010
,  // measure 40
0010
0000
0010
0000
,  // measure 41
1000
0100
1000
0000
,  // measure 42
0100
0010
0100
0000
,  // measure 43
0010
0001
0010
0000
,  // measure 44
0001
0010
0001
0000
,  // measure 45
0100
0010
0100
0000
,  // measure 46
0010
1000
0010
0000
,  // measure 47
1000
0001
0100
0000
,  // measure 48
0001
1000
0010
0100
;

//---------------dance-single - Chewi----------------
#NOTES:
     dance-single:
     Chewi:
     Medium:
     6:
     0.335,0.334,0.070,0.547,0.000: // measure 1
0000
0000
0000
0000
,  // measure 2
0000
0000
0000
0000
,  // measure 3
0000
0000
0000
0000
,  // measure 4
0000
0000
0000
0000
,  // measure 5
2000
0000
3002
0000
0103
0100
0100
0000
,  // measure 6
0002
0000
2003
0000
3010
0010
0010
0000
,  // measure 7
2000
0000
3200
0000
1300
1000
1000
0000
,  // measure 8
0200
0320
0032
0203
,  // measure 9
0301
1001
1000
1001
,  // measure 10
0020
2030
3200
0302
,  // measure 11
0013
0110
0100
0110
,  // measure 12
0200
2300
3020
0032
,  // measure 13
0203
0000
0310
0000
0100
0010
0100
0000
,  // measure 14
0020
0000
0130
0000
0010
0100
0010
0000
,  // measure 15
0002
1003
2000
3001
,  // measure 16
0001
0010
0100
0000
1000
0100
0010
0000
,  // measure 17
0002
0000
2003
0000
3001
1000
0100
0000
,  // measure 18
1000
0010
0100
0000
0001
0100
0010
0000
,  // measure 19
2000
0000
3001
0000
0010
0100
0010
0000
,  // measure 20
0001
0010
0100
0000
1000
0010
0100
0000
,  // measure 21
0002
0000
0103
0000
0010
0100
0001
0000
,  // measure 22
1000
0100
0010
0000
0001
0000
0101
0000
,  // measure 23
2000
0000
3001
0000
0100
0010
0100
0000
,  // measure 24
0001
1000
0100
0000
1000
0000
1100
0000
,  // measure 25
0001
1000
0001
0000
0001
0000
0101
0000
,  // measure 26
1000
0010
1000
0000
1000
0100
1000
0000
,  // measure 27
0001
0100
0001
0000
2000
0000
3200
0000
,  // measure 28
0320
0032
0013
0101
,  // measure 29
0020
0000
0030
0000
0010
0100
1000
0000
,  // measure 30
2000
3001
0002
1003
,  // measure 31
0002
0000
0003
0000
1000
0001
1000
0001
,  // measure 32
2000
3100
2000
3010
,  // measure 33
0200
0000
0300
0000
0001
0100
0001
0000
,  // measure 34
0020
0130
2000
3100
,  // measure 35
2000
0000
3000
0000
1000
0100
0000
0100
,  // measure 36
2000
3010
0020
0130
,  // measure 37
0200
0000
0300
0000
0100
0010
1000
0000
,  // measure 38
2000
3001
0002
1003
,  // measure 39
0002
0000
0003
0000
1000
0001
1000
0001
,  // measure 40
2000
3100
2000
3010
,  // measure 41
0200
0000
0300
0000
0001
0100
0000
0100
,  // measure 42
0002
0013
0200
1300
,  // measure 43
2000
0000
3000
0000
1000
0100
0000
0100
,  // measure 44
2000
3010
0200
0301
,  // measure 45
0002
0000
0003
0000
0010
0001
0000
0001
,  // measure 46
0020
0130
2000
3001
,  // measure 47
0002
0000
0003
0000
0100
0001
0000
0001
,  // measure 48
0200
2300
3020
0032
,  // measure 49
0003
0000
0000
0000
;

//---------------dance-single - Chewi----------------
#NOTES:
     dance-single:
     Chewi:
     Hard:
     9:
     0.384,0.417,0.165,0.678,0.000: // measure 1
0000
0000
0000
0000
,  // measure 2
0000
0000
0000
0000
,  // measure 3
0000
0000
0000
0000
,  // measure 4
0000
0000
0000
0000
,  // measure 5
2000
0000
3100
0000
1000
0100
1000
0000
,  // measure 6
0200
0000
0301
0000
0100
0001
0100
0000
,  // measure 7
0002
0000
0013
0000
0001
0010
0001
0000
,  // measure 8
0020
0000
1030
0000
0010
1000
0010
0000
,  // measure 9
1000
0100
0020
0000
0031
0010
0200
0000
,  // measure 10
1300
0001
0200
0000
0301
1000
0020
0000
,  // measure 11
0130
0010
2000
0000
3010
0100
0002
0000
,  // measure 12
1003
0100
0020
0000
0031
0010
0200
0000
,  // measure 13
1300
0100
1000
0100
1000
0010
0100
0000
,  // measure 14
0001
0100
0001
0100
0001
0010
0100
0000
,  // measure 15
1000
0001
0000
0000
0000
0000
1001
0000
,  // measure 16
0002
0203
0302
0023
,  // measure 17
0230
2300
3200
0302
,  // measure 18
0013
1000
0200
0000
0302
0000
0103
0000
,  // measure 19
1000
0010
0002
0000
0203
0000
1300
0000
,  // measure 20
0100
0001
0020
0000
2030
0000
3100
0000
,  // measure 21
0001
0100
2000
0000
3020
0000
0031
0000
,  // measure 22
0010
0010
0010
0010
0100
0000
0101
0000
,  // measure 23
1000
1000
1000
1000
0001
0000
1001
0000
,  // measure 24
0100
0100
0100
0100
0010
0001
0100
0001
,  // measure 25
0000
0001
0001
0001
1000
0100
0010
0100
,  // measure 26
0000
1000
1000
1000
1000
0001
1000
0000
,  // measure 27
0001
1000
0001
0000
1000
2000
3100
0200
,  // measure 28
0310
0020
0031
0002
1003
0000
1001
0000
,  // measure 29
0220
0000
0330
0000
0010
0100
0010
0000
,  // measure 30
2010
0001
0200
3300
,  // measure 31
2002
0000
3003
0000
1000
0001
1000
0001
,  // measure 32
0012
0100
2000
3003
,  // measure 33
0202
0000
0303
0000
0001
0100
0001
0000
,  // measure 34
1020
0001
2000
3030
,  // measure 35
2200
0000
3300
0000
1000
0100
0000
0010
,  // measure 36
0002
2003
3020
0130
,  // measure 37
0220
0000
0330
0000
0100
0010
0100
0000
,  // measure 38
0102
1000
0020
0033
,  // measure 39
2002
0000
3003
0000
0001
1000
0001
1000
,  // measure 40
2100
0010
0002
3003
,  // measure 41
2020
0000
3030
0000
1000
0010
0000
0100
,  // measure 42
0002
2003
3200
0310
,  // measure 43
0022
0000
0033
0000
0001
0010
0000
0100
,  // measure 44
2000
3002
0203
0310
,  // measure 45
2002
0000
3003
0000
1000
0010
0000
0100
,  // measure 46
0002
0023
0230
1300
,  // measure 47
2200
0000
3300
0000
0100
0010
0000
0010
,  // measure 48
0002
0203
2300
3020
,  // measure 49
0030
0000
0000
0000
;
