#TITLE:If I Had You;
#SUBTITLE:;
#ARTIST:ADAM LAMBERT;
#TITLETRANSLIT:;
#SUBTITLETRANSLIT:;
#ARTISTTRANSLIT:;
#GENRE:;
#CREDIT:Chewi☆;
#MENUCOLOR:#FFFFFF;
#METERTYPE:DDR X;
#BANNER:If I Had You.png;
#BACKGROUND:If I Had You-bg.png;
#LYRICSPATH:;
#CDTITLE:./CDTITLES/DanceDanceRevolution skyMIX2 -FREEDOM-.png;
#MUSIC:If I Had You.mp3;
#OFFSET:-1.890;
#SAMPLESTART:37.658;
#SAMPLELENGTH:15.000;
#SELECTABLE:YES;
#LISTSORT:;
#DISPLAYBPM:131.000;
#BPMS:0.000=131.010;
#STOPS:;
#BGCHANGES:;
#ATTACKS:;

//---------------dance-single - Chewi----------------
#NOTES:
     dance-single:
     Chewi:
     Beginner:
     2:
     0.104,0.181,0.120,0.000,0.000:
0000
0000
0000
0000
,
0000
0000
0000
0000
,
0000
0000
0000
0000
,
0000
0000
0000
0000
,
1000
0000
0000
0000
,
0001
0000
0000
0000
,
1000
0000
0000
0000
,
0001
0000
0000
0000
,
0010
0000
0000
0000
,
0100
0000
0000
0000
,
0010
0000
0000
0000
,
0100
0000
0000
0000
,
0010
0000
0000
0000
,
0100
0000
0000
0000
,
0010
0000
0000
0000
,
1000
0000
0000
0000
,
0001
0000
0000
0000
,
1000
0000
0000
0000
,
0100
0000
0100
0000
,
0100
0000
0000
0000
,
0110
0000
0000
0000
,
0010
0000
1000
0000
,
0100
0000
0100
0000
,
0000
0000
0000
0000
,
0110
0000
0000
0000
,
0010
0000
0001
0000
,
0100
0000
0100
0000
,
0000
0000
0000
0000
,
1001
0000
0000
0000
,
1000
0000
0010
0000
,
0001
0000
0100
0000
,
0000
0000
0000
0000
,
1001
0000
0000
0000
,
0110
0000
0000
0000
,
1001
0000
0000
0000
,
0010
0010
0010
0000
,
0110
0000
0000
0000
,
0010
0000
1000
0000
,
0100
0000
0100
0000
,
0000
0000
0000
0000
,
0110
0000
0000
0000
,
0010
0000
0001
0000
,
0100
0000
0100
0000
,
0000
0000
0000
0000
,
1001
0000
0000
0000
,
1000
0000
0010
0000
,
0001
0000
0100
0000
,
0000
0000
0000
0000
,
1001
0000
0000
0000
,
0110
0000
0000
0000
,
1001
0000
0000
0000
,
0010
0010
0010
0010
,
0010
0000
0000
0000
;

//---------------dance-single - Chewi----------------
#NOTES:
     dance-single:
     Chewi:
     Easy:
     4:
     0.207,0.264,0.080,0.090,0.000:
0000
0000
0000
0000
,
0000
0000
0000
0000
,
0000
0000
0000
0000
,
0000
0000
0000
0000
,
1000
0100
1000
0100
,
1000
0100
1000
0100
,
0001
0100
0001
0100
,
0001
0100
0001
0100
,
0001
1000
0001
1000
,
0001
1000
0001
1000
,
0010
0100
0010
0100
,
0010
0100
0010
0100
,
0020
0000
0000
0030
,
2000
0000
0000
3000
,
0002
0000
0000
0003
,
2000
0000
0000
3000
,
0200
0000
0000
0300
,
0020
0000
0000
0030
,
0002
1000
1000
1000
,
2000
0000
0000
3003
,
1000
0010
0010
0000
,
0010
0000
0001
0000
,
0100
0000
1000
0000
,
1000
0000
1000
0100
,
0100
0000
0001
0000
,
0010
0000
1000
0000
,
0100
0000
0001
0000
,
0010
0010
0001
0001
,
0100
0000
1000
0000
,
0010
0000
0001
0000
,
0100
0000
1000
0000
,
0010
0010
0100
0100
,
1001
0000
1000
0001
,
0110
0000
0010
0100
,
1100
0000
0010
0100
,
0101
0000
0001
0010
,
1000
0010
0010
0000
,
0010
0000
0001
0000
,
0100
0000
1000
0000
,
1000
0000
1000
0100
,
0100
0000
0001
0000
,
0010
0000
1000
0000
,
0100
0000
0001
0000
,
0010
0010
0001
0001
,
0100
0000
1000
0000
,
0010
0000
0001
0000
,
0100
0000
1000
0000
,
0010
0010
0100
0100
,
1001
0000
1000
0001
,
0110
0000
0010
0100
,
1100
0000
0010
0100
,
0101
0000
0001
0010
,
0200
0000
0000
0000
,
0300
0000
0000
0000
;

//---------------dance-single - Chewi----------------
#NOTES:
     dance-single:
     Chewi:
     Medium:
     7:
     0.313,0.370,0.259,0.189,0.000:
0000
0000
0000
0000
,
0000
0000
0000
0000
,
0000
0000
0000
0000
,
0000
0000
0000
0000
,
1000
0010
0001
0010
,
1000
0010
0001
0100
,
1000
0100
0001
0100
,
1000
0100
0001
0010
,
1000
0100
1000
0010
,
1000
0100
0001
0010
,
0100
0001
0100
0010
,
0020
0000
0000
0030
,
0010
0000
0100
0010
0100
0000
0000
0000
,
0001
0000
1000
0001
1000
0000
0000
0000
,
1000
0000
0001
1000
0001
0000
0000
0000
,
0010
0000
0100
0010
0100
0000
0000
0000
,
0010
0000
0001
0100
1000
0000
0000
0000
,
0010
0000
1000
0100
0001
0000
0000
0000
,
0001
1000
0010
0100
,
0020
1000
0001
0000
,
1030
0010
0100
0001
,
0010
0001
0010
0000
0010
1000
0010
0000
,
0020
0000
0000
0100
0200
0000
0000
0000
,
0000
0330
1000
0001
,
2002
0000
3003
0000
,
1000
0100
0010
0001
,
0200
0000
0000
0010
0020
0000
0000
0000
,
0000
0330
1010
0101
,
0011
0000
0010
0000
0100
1000
0100
0000
,
1000
0000
0001
0000
0100
0010
1000
0001
,
0020
0000
0000
0100
0200
0000
0000
0000
,
0000
0330
0010
0001
,
0101
0000
0000
1100
0000
0000
1001
0000
,
0110
0000
0000
1010
0000
0000
0110
0000
,
0101
0000
0000
1001
0000
0000
0011
0000
,
0010
0100
1000
0000
1000
0100
0010
0001
,
1000
0010
0100
0001
,
0010
0001
0010
0000
0010
1000
0010
0000
,
0020
0000
0000
0100
0200
0000
0000
0000
,
0000
0330
1000
0001
,
2002
0000
3003
0000
,
1000
0100
0010
0001
,
0200
0000
0000
0010
0020
0000
0000
0000
,
0000
0330
1010
0101
,
0011
0000
0010
0000
0100
1000
0100
0000
,
1000
0000
0001
0000
0100
0010
1000
0001
,
0020
0000
0000
0100
0200
0000
0000
0000
,
0000
0330
0010
0001
,
0101
0000
0000
1100
0000
0000
1001
0000
,
0110
0000
0000
1010
0000
0000
0110
0000
,
0101
0000
0000
1001
0000
0000
0011
0000
,
0010
0100
1000
0000
1000
0100
0010
0001
,
0002
0000
0000
0000
,
0003
0000
0000
0000
;

//---------------dance-single - Chewi----------------
#NOTES:
     dance-single:
     Chewi:
     Hard:
     10:
     0.449,0.476,0.179,0.140,0.000: // measure 1
0000
0000
0000
0000
,  // measure 2
0000
0000
0000
0000
,  // measure 3
0000
0000
0000
0000
,  // measure 4
0000
0000
0000
0000
,  // measure 5
1000
0000
0010
0000
0001
0000
0100
1000
,  // measure 6
0010
0000
0001
0000
0100
0000
1000
0010
,  // measure 7
0001
0000
0100
0000
1000
0000
0010
0001
,  // measure 8
0100
0000
1000
0000
0010
0001
0100
0001
,  // measure 9
0010
1000
0100
0000
0001
0000
0010
1000
,  // measure 10
0100
0000
0001
0000
0010
1000
0100
0001
,  // measure 11
0010
0000
0100
0000
0001
0000
0010
0100
,  // measure 12
2000
0000
0000
0000
3000
0000
0001
1000
,  // measure 13
0010
0100
0001
1000
0010
0000
0000
0000
,  // measure 14
1000
0001
1000
0001
1000
0000
0000
0000
,  // measure 15
1000
0001
0100
0010
1000
0001
0100
0000
,  // measure 16
0010
1000
0100
1000
0010
0000
0101
0000
,  // measure 17
0010
0001
0100
0010
0100
0001
0010
0000
,  // measure 18
0010
0100
1000
0010
1000
0100
0010
0000
,  // measure 19
0001
1000
0010
0100
0001
1000
0010
0100
,  // measure 20
0001
0001
0010
0010
0100
0100
1000
0000
,  // measure 21
1100
0000
0101
0000
0100
0010
0100
0000
,  // measure 22
0010
1000
0100
1000
0010
1000
0100
0010
,  // measure 23
0002
0000
0000
1000
2000
0000
0000
0000
,  // measure 24
3003
0000
0000
1000
0010
0001
0010
1000
,  // measure 25
0110
1001
0101
1100
,  // measure 26
0100
1000
0010
0100
0001
0100
0010
1000
,  // measure 27
0002
0000
0000
1000
2000
0000
0000
0000
,  // measure 28
3003
0000
0000
1000
1100
0000
0101
0000
,  // measure 29
1010
0010
0100
0001
0010
0100
1000
0001
,  // measure 30
0100
0010
1000
0001
0010
0100
1000
0001
,  // measure 31
2000
0000
0000
0010
0020
0000
0000
0000
,  // measure 32
3030
0000
0000
1000
0010
0100
0001
0000
,  // measure 33
0101
0000
0011
1000
0000
0100
1000
0001
,  // measure 34
0010
0000
0100
0110
0000
0010
0001
0100
,  // measure 35
1010
0000
0010
0110
0000
0010
0100
0001
,  // measure 36
0010
0001
0010
0001
0010
0100
0001
0100
,  // measure 37
0100
0010
1000
0001
0010
0100
1000
0001
,  // measure 38
1000
0010
0100
0001
1000
0010
0100
0001
,  // measure 39
0020
0000
0000
0001
0002
0000
0000
0000
,  // measure 40
0033
0000
0000
0001
0010
0100
1000
0010
,  // measure 41
0100
0001
0100
0010
1000
0001
0010
0100
,  // measure 42
1000
0001
1000
0010
0100
0001
0100
0010
,  // measure 43
2000
0000
0000
0001
0002
0000
0000
0000
,  // measure 44
3003
0000
0000
0010
0101
0011
1100
0010
,  // measure 45
1000
0100
0010
0001
0010
0100
1000
0010
,  // measure 46
0100
0001
0100
0010
1000
0001
0010
0100
,  // measure 47
2000
0000
0000
0100
0200
0000
0000
0000
,  // measure 48
0000
0000
3300
0001
0010
0100
1000
0010
,  // measure 49
0100
0001
0100
1000
0000
0100
1000
0010
,  // measure 50
0001
0010
1000
0010
0000
1000
0010
0001
,  // measure 51
0010
1000
0100
0001
0000
0001
0100
0010
,  // measure 52
1000
0001
0010
0100
1000
0001
0010
0100
,  // measure 53
2000
0000
0000
0000
,  // measure 54
3000
0000
0000
0000
;
