#TITLE:Ice Cream Cake;
#SUBTITLE:;
#ARTIST:Red Velvet;
#TITLETRANSLIT:;
#SUBTITLETRANSLIT:;
#ARTISTTRANSLIT:;
#GENRE:Pop;
#CREDIT:chewi;
#BANNER:Ice Cream Cake.png;
#BACKGROUND:Ice Cream Cake-bg.png;
#LYRICSPATH:;
#CDTITLE:cdtitle.png;
#MUSIC:Ice Cream Cake.ogg;
#OFFSET:-0.350115;
#SAMPLESTART:36.064869;
#SAMPLELENGTH:15.000000;
#SELECTABLE:YES;
#DISPLAYBPM:86.000000;
#BPMS:0.000000=85.980003
;
#STOPS:
;
#BGCHANGES:-0.350=Ice Cream Cake.avi=1.000=1=0=0=StretchNoLoop==CrossFade==,
99999=-nosongbg-=1.000=0=0=0 // don't automatically add -songbackground-
;
#KEYSOUNDS:;
#ATTACKS:;

//---------------dance-single - ----------------
#NOTES:
     dance-single:
     :
     Beginner:
     1:
     0.060467,0.085798,0.045759,0.000000,0.000000,37.000000,33.000000,4.000000,0.000000,0.000000,0.000000,0.060467,0.085798,0.045759,0.000000,0.000000,37.000000,33.000000,4.000000,0.000000,0.000000,0.000000:
0000
0000
0000
0000
,
0000
0000
0000
0000
,
1000
0000
0000
0000
,
0001
0000
0000
0000
,
0100
0000
0000
0000
,
0010
0000
0000
0000
,
0010
0000
0000
0000
,
0100
0000
0000
0000
,
0001
0000
0000
0000
,
1000
0000
0000
0000
,
1000
0000
0000
0000
,
1000
0000
0000
0000
,
0001
0000
0000
0000
,
0001
0000
0001
0000
,
0001
0000
0000
0000
,
1000
0000
1000
0000
,
1000
0000
0000
0000
,
0010
0000
0000
0000
,
0110
0000
0000
0000
,
0100
0000
0000
0000
,
0110
0000
0000
0000
,
0010
0000
0010
0000
,
0010
0000
0000
0000
,
0100
0000
0100
0000
,
0100
0000
0000
0000
,
1000
0000
0000
0000
,
1001
0000
0000
0000
,
0001
0000
0000
0000
,
1001
0000
0000
0000
,
0010
0000
0000
0000
,
0010
0000
0000
0000
;

//---------------dance-single - ----------------
#NOTES:
     dance-single:
     :
     Hard:
     9:
     0.279455,0.264900,0.045759,0.228794,0.137276,171.000000,167.000000,4.000000,20.000000,0.000000,0.000000,0.279455,0.264900,0.045759,0.228794,0.137276,171.000000,167.000000,4.000000,20.000000,0.000000,0.000000:
0000
0000
0000
0000
,
0000
0000
0000
0000
,
1000
0000
0000
1000
0001
0000
1000
0000
0002
0000
0000
0000
0013
0000
0000
0000
,
0010
0000
0000
0010
0001
0000
1000
0000
0020
0000
0000
0000
0130
0000
0000
0000
,
0100
0000
0000
0100
0010
0000
0100
0000
0002
0000
0000
0000
1003
0000
0000
0000
,
1000
0000
0000
1000
0100
0000
1000
0000
0002
0000
0000
0000
0103
0000
0000
0000
,
0001
0000
0000
0001
1000
0000
0001
0000
2000
0000
0000
0000
3100
0000
0000
0000
,
0100
0000
0000
0100
1000
0000
0001
0000
0200
0000
0000
0000
0310
0000
0000
0000
,
0010
0000
0000
0010
0100
0000
0010
0000
2000
0000
0000
0000
3001
0000
0000
0000
,
0001
0000
0000
0001
0010
0000
0001
0000
2000
0000
0000
0000
3010
0000
0000
0000
,
1000
0000
0000
0001
0000
0000
1000
0000
0000
0001
0000
0000
1000
0000
0100
0000
,
0010
0000
0000
0100
0000
0000
0010
0000
0000
0100
0000
0000
0010
0000
0100
0000
,
2000
3020
0230
0302
,
1003
0001
0100
0000
0010
0010
0010
0000
,
1000
0001
0010
0000
0001
0010
0100
1000
,
0001
1000
0100
0000
0100
0100
0100
0000
,
0010
0100
1000
0000
0010
0100
0001
0100
,
0001
0000
0000
0100
0000
0000
0001
0000
0000
0200
0000
0000
0300
0000
0000
0000
,
0100
0000
0000
0010
0000
0000
0100
0000
0000
0010
0000
0000
0110
0000
0000
0000
,
0010
0000
0000
1000
0000
0000
0010
0000
0000
2000
0000
0000
3000
0000
0000
0000
,
2000
3100
0002
0103
0010
1000
0001
0100
,
0001
1000
0010
0000
0100
0100
0100
0000
,
0001
1000
0100
0000
1000
0100
0010
0001
,
1000
0001
0010
0000
0010
0010
0010
0000
,
0100
0010
0001
0000
0100
0010
1000
0010
,
1000
0000
0000
0010
0000
0000
1000
0000
0000
0020
0000
0000
0030
0000
0000
0000
,
0010
0000
0000
0100
0000
0000
0010
0000
0000
0100
0000
0000
0110
0000
0000
0000
,
0100
0000
0000
0001
0000
0000
0100
0000
0000
0002
0000
0000
0003
0000
0000
0000
,
0002
0013
2000
3010
0100
0001
1000
0010
,
1000
0000
1001
0000
0000
1000
0001
0000
,
0010
0000
0110
0000
0000
0010
0100
0010
;

//---------------dance-single - ----------------
#NOTES:
     dance-single:
     :
     Easy:
     3:
     0.076809,0.087943,0.000000,0.125837,0.000000,47.000000,47.000000,0.000000,11.000000,0.000000,0.000000,0.076809,0.087943,0.000000,0.125837,0.000000,47.000000,47.000000,0.000000,11.000000,0.000000,0.000000:
0000
0000
0000
0000
,
0000
0000
0000
0000
,
0000
1000
0000
1000
,
0000
1000
0000
1000
,
0000
0001
0000
0001
,
0000
0001
0000
0001
,
0000
0100
0000
0100
,
0000
0100
0000
0100
,
0000
0010
0000
0010
,
0000
0010
0000
0010
,
0020
0000
0000
0030
,
2000
0000
0000
3000
,
0200
0000
0000
0300
,
0001
0000
0001
0000
,
0010
0000
0010
0000
,
1000
0000
1000
0000
,
0010
0000
0010
0000
,
0200
0000
0000
0300
,
0200
0000
0000
0300
,
0020
0000
0000
0030
,
0020
0000
0000
0030
,
0010
0000
0010
0000
,
1000
0000
1000
0000
,
0100
0000
0100
0000
,
0001
0000
0001
0000
,
0020
0000
0000
0030
,
0020
0000
0000
0030
,
2000
0000
0000
3000
,
2000
0000
0000
3000
,
0001
0000
0000
1000
,
0001
0000
0000
1000
;

//---------------dance-single - ----------------
#NOTES:
     dance-single:
     :
     Medium:
     7:
     0.209183,0.229580,0.114397,0.446148,0.000000,128.000000,118.000000,10.000000,39.000000,0.000000,0.000000,0.209183,0.229580,0.114397,0.446148,0.000000,128.000000,118.000000,10.000000,39.000000,0.000000,0.000000:
0000
0000
0000
0000
,
0000
0000
0000
0000
,
2000
0000
3100
0000
0000
1000
0100
0000
,
0002
0000
0103
0000
0000
0001
0100
0000
,
2000
0000
3010
0000
0000
1000
0010
0000
,
0002
0000
0013
0000
0000
0001
0010
0000
,
0200
1300
0100
1100
,
2000
3001
0100
0110
,
0020
1030
0001
1001
,
2000
3001
0010
0110
,
0100
0000
0000
0100
0000
0000
0100
1000
,
0001
0000
0000
0001
0000
0000
0001
1000
,
0002
0203
0320
0030
,
0002
0000
2003
0000
3001
1000
0001
0000
,
0020
0230
2300
3002
,
2003
0000
3002
0000
1003
0001
1000
0000
,
0002
0203
0320
2030
,
3010
0000
0000
0100
0000
0000
0110
0000
,
0001
0000
0000
1000
0000
0000
1001
0000
,
0010
0000
0000
0100
0000
0000
1001
0000
,
2000
0000
3002
0000
1003
0001
1000
0001
,
2000
0000
3002
0000
1003
0001
1000
0000
,
0200
0320
0032
2003
,
3002
0000
2003
0000
3001
1000
0001
0000
,
2000
3020
0230
0302
,
0103
0000
0000
0010
0000
0000
0110
0000
,
1000
0000
0000
0001
0000
0000
1001
0000
,
0100
0000
0000
0010
0000
0000
1001
0000
,
0002
0000
2003
0000
3001
1000
0001
1000
,
0001
0000
1000
0000
0000
0001
1000
0000
,
0001
0000
0001
0000
0000
1000
0001
0100
;

//---------------dance-single - ----------------
#NOTES:
     dance-single:
     :
     Challenge:
     12:
     0.514786,0.600440,0.617743,0.125837,0.503346,315.000000,261.000000,54.000000,11.000000,0.000000,0.000000,0.514786,0.600440,0.617743,0.125837,0.503346,315.000000,261.000000,54.000000,11.000000,0.000000,0.000000:
// measure 0
0000
0000
0000
0000
,  // measure 1
0000
0000
0000
0000
,  // measure 2
1000
0000
0000
1000
0100
0000
0010
0000
0100
1000
0010
0000
0100
0001
0010
0000
,  // measure 3
0001
0000
0000
0001
0100
0000
0010
0000
1000
0100
1000
0000
0001
0100
0001
0000
,  // measure 4
1000
0000
0000
1000
0001
0000
1000
0000
0100
1000
0001
0000
0100
0001
1000
0000
,  // measure 5
0010
0000
0000
0010
0100
0000
0010
0000
1000
0010
1000
0000
0001
0100
0001
0100
,  // measure 6
0001
0000
0000
0001
0010
0000
0100
0000
0010
0001
0100
0000
0010
1000
0100
0000
,  // measure 7
1000
0000
0000
1000
0010
0000
0100
0000
0001
0010
0001
0000
1000
0010
1000
0000
,  // measure 8
0001
0000
0000
0001
1000
0000
0001
0000
0010
0001
1000
0000
0010
1000
0001
0000
,  // measure 9
0100
0000
0000
0100
0010
0000
0100
0000
0001
0100
0001
0000
1000
0010
1000
0010
,  // measure 10
1000
0000
0000
1010
0000
0000
0001
0000
0000
0011
0000
0000
0001
0000
0010
0000
,  // measure 11
0100
0000
0000
1100
0000
0000
0100
0000
0000
0101
0000
0000
0100
0000
0010
0000
,  // measure 12
0200
2300
3002
0003
,  // measure 13
1000
0000
0001
0000
1000
0000
0001
0010
1100
0000
1010
0000
1100
0000
0000
0000
,  // measure 14
0010
0100
0010
0100
1000
0001
0100
0000
0100
0010
0100
0010
1000
0001
0010
0000
,  // measure 15
0001
0000
1000
0000
0001
0000
1000
0010
0101
0000
1001
0000
0101
0000
0000
0000
,  // measure 16
0100
0001
0100
0001
1000
0010
0100
0000
0010
1000
0010
1000
0001
0010
0100
0000
,  // measure 17
1001
0000
0000
0101
0000
0000
1001
0000
0000
2020
0000
0000
3030
0000
0000
0000
,  // measure 18
0110
0000
0000
1001
0000
0000
0110
0000
0000
1001
0000
0000
1001
0000
0000
0000
,  // measure 19
1100
0000
0000
0110
0000
0000
1100
0000
0000
2002
0000
0000
3003
0000
0000
0000
,  // measure 20
1000
0100
1000
0100
0010
0001
0010
0000
0001
0010
0001
0010
0100
1000
0100
0000
,  // measure 21
0001
0000
1000
0000
0001
0000
1000
0100
0011
0000
0101
0000
0011
0000
0000
0000
,  // measure 22
0100
0010
0100
0010
1000
0001
0010
0000
0010
0100
0010
0100
1000
0001
0010
0000
,  // measure 23
0001
0000
1000
0000
0001
0000
1000
0100
0011
0000
1001
0000
0011
0000
0000
0000
,  // measure 24
0010
0001
0010
0001
1000
0100
0010
0000
0001
0100
0001
0100
0010
1000
0100
0000
,  // measure 25
1001
0000
0000
1100
0000
0000
1001
0000
0000
0202
0000
0000
0303
0000
0000
0000
,  // measure 26
0110
0000
0000
1001
0000
0000
0110
0000
0000
1001
0000
0000
0110
0000
0000
0000
,  // measure 27
0101
0000
0000
1001
0000
0000
0101
0000
0000
2002
0000
0000
3003
0000
0000
0000
,  // measure 28
1001
0000
0000
0000
0100
0000
0000
0000
1001
0000
0000
0000
0100
0000
0000
0000
1000
0100
1000
0000
0100
1000
0100
0000
1001
0000
0000
0000
1001
0000
0000
0000
,  // measure 29
0110
0000
0000
0000
0100
0000
0000
0000
0110
0000
0000
0000
0010
0000
0000
0000
1000
0010
1000
0000
0010
1000
0010
0000
1001
0000
0000
0000
1001
0000
0000
0000
,  // measure 30
1100
0000
0000
0000
1000
0000
0000
0000
0101
0000
0000
0000
0001
0000
0000
0000
0100
0010
0100
0000
0010
0100
0010
0000
0110
0000
0000
0000
0110
0000
0000
0000
;
