#TITLE:いつまでも;
#SUBTITLE:;
#ARTIST:Iyse;
#TITLETRANSLIT:ITSUMADEMO;
#SUBTITLETRANSLIT:;
#ARTISTTRANSLIT:;
#GENRE:;
#CREDIT:Chewi☆;
#MENUCOLOR:#FFFFFF;
#METERTYPE:DDR X;
#BANNER:ITSUMADEMO.png;
#BACKGROUND:ITSUMADEMO-bg.png;
#LYRICSPATH:;
#CDTITLE:./CDTITLES/DanceDanceRevolution skyMIX3 -breeze-.png;
#MUSIC:ITSUMADEMO.mp3;
#OFFSET:-0.388;
#SAMPLESTART:11.333;
#SAMPLELENGTH:15.000;
#SELECTABLE:YES;
#LISTSORT:;
#DISPLAYBPM:85.000;
#BPMS:0.000=85.000;
#STOPS:;
#BGCHANGES:;
#ATTACKS:;

//---------------dance-single - Chewi----------------
#NOTES:
     dance-single:
     Chewi:
     Beginner:
     1:
     0.104,0.138,0.035,0.018,0.000:
0000
0000
0000
0000
,
0000
0000
0000
0000
,
0000
0000
0000
0000
,
0000
0000
0000
0000
,
0100
0000
0100
0000
,
1000
0000
1000
0000
,
0001
0000
0001
0000
,
1000
0000
1000
0000
,
0100
0000
0100
0000
,
0001
0000
0001
0000
,
1000
0000
1000
0000
,
0100
0000
0100
0000
,
1001
0000
0001
0000
,
1000
0000
1000
0000
,
0100
0000
0100
0000
,
1000
0000
0001
0000
,
0001
0000
1000
0000
,
0100
0000
1000
0000
,
0001
0000
0100
0000
,
1000
0000
0001
0000
,
1001
0000
0100
0100
,
0100
0000
0001
0001
,
0001
0000
0100
0000
,
1000
0000
0100
0000
,
0100
0100
0100
0000
,
1000
1000
1000
0000
,
0001
0001
0001
0000
,
0100
0000
1001
0000
,
0001
0000
0001
0000
,
0001
0000
0001
0000
,
0100
0000
0100
0000
,
0100
0000
0100
0000
,
1000
0000
1000
0000
,
1000
0000
1000
0000
,
1001
0000
0100
0000
,
0100
0100
0100
0100
,
0200
0000
0000
0300
,
0100
0000
1000
0000
,
2000
0000
0000
3000
,
1000
0000
0000
0000
;

//---------------dance-single - Chewi----------------
#NOTES:
     dance-single:
     Chewi:
     Easy:
     3:
     0.148,0.171,0.080,0.009,0.000: // measure 1
0000
0000
0000
0000
,  // measure 2
0000
0000
0000
0000
,  // measure 3
0000
0000
0000
0000
,  // measure 4
0000
0000
0000
0000
,  // measure 5
1000
1000
1000
0000
,  // measure 6
0100
0000
0010
0000
,  // measure 7
0001
0001
0001
0000
,  // measure 8
0010
0000
0100
0000
,  // measure 9
1001
0000
0100
0000
,  // measure 10
0010
1000
0100
0001
,  // measure 11
0010
0000
0010
0000
,  // measure 12
0100
0000
0100
0000
,  // measure 13
0010
0010
0110
0000
,  // measure 14
0100
0100
0110
0000
,  // measure 15
1000
0100
0010
0001
,  // measure 16
1000
0100
0010
0001
,  // measure 17
1000
1000
0001
1000
,  // measure 18
0001
0001
1000
0001
,  // measure 19
0100
0100
0010
0100
,  // measure 20
0010
0010
0100
0010
,  // measure 21
0110
0000
0100
0100
,  // measure 22
1000
0000
1000
1000
,  // measure 23
0010
1000
0010
0001
,  // measure 24
0010
0100
0100
0100
,  // measure 25
0000
1000
0100
0010
,  // measure 26
0000
0001
1000
0010
,  // measure 27
0100
0100
0010
0010
,  // measure 28
1000
0000
1001
0000
,  // measure 29
0010
0010
0100
0000
,  // measure 30
0110
0000
1001
0000
,  // measure 31
1000
0010
0100
1000
,  // measure 32
0010
0000
0100
0000
,  // measure 33
0001
0010
0100
0001
,  // measure 34
0010
1000
0100
1000
,  // measure 35
1001
0000
0100
0000
,  // measure 36
0010
0010
0100
0100
,  // measure 37
1001
0000
0000
1000
,  // measure 38
1000
0000
0100
0100
,  // measure 39
0200
0000
0000
0300
;

//---------------dance-single - Chewi----------------
#NOTES:
     dance-single:
     Chewi:
     Medium:
     5:
     0.207,0.223,0.071,0.080,0.000: // measure 1
0000
0000
0000
0000
,  // measure 2
0000
0000
0000
0000
,  // measure 3
0000
0000
0000
0000
,  // measure 4
0000
0000
0000
0000
,  // measure 5
1000
0000
0100
0000
0001
0001
0000
0000
,  // measure 6
0001
0000
0010
0000
1000
1000
0000
0000
,  // measure 7
1000
0000
0001
0000
0100
0010
0000
0000
,  // measure 8
0001
0000
1000
0000
0100
0010
0000
0000
,  // measure 9
0001
0001
0001
0000
1000
1000
1000
0000
,  // measure 10
0010
1001
0100
1001
,  // measure 11
2000
3100
0002
0103
,  // measure 12
1000
0000
0100
0000
0001
0000
0010
0010
,  // measure 13
0010
0100
0220
0330
,  // measure 14
1000
0001
2002
3003
,  // measure 15
0001
0000
0010
0000
0100
0100
0100
0000
,  // measure 16
1000
0000
0100
0000
0010
0010
0010
0000
,  // measure 17
0001
0000
1000
0000
0010
0000
0001
0001
,  // measure 18
0100
0000
1000
0000
0001
0000
0100
0100
,  // measure 19
0010
1000
0100
0001
,  // measure 20
0010
0001
0100
1000
,  // measure 21
0000
1000
1000
0000
0001
0000
1001
0000
,  // measure 22
0000
0100
0100
0000
0010
0000
0110
0000
,  // measure 23
0010
1000
0100
0001
,  // measure 24
0010
0001
0100
1000
,  // measure 25
0000
1000
1000
0000
1001
0000
0100
0000
,  // measure 26
0000
0010
0010
0000
0010
0000
0110
0000
,  // measure 27
0100
0001
0010
1000
,  // measure 28
0100
0000
0100
0100
0100
0000
0000
0000
,  // measure 29
0001
0010
0100
1000
,  // measure 30
1000
0010
0100
1000
,  // measure 31
1000
0100
0010
0001
,  // measure 32
0100
0010
0001
0100
,  // measure 33
1000
1000
1000
0000
0100
0000
0010
0000
,  // measure 34
0001
0001
0001
0000
0100
0000
0010
0000
,  // measure 35
0010
0010
0100
0000
0100
0100
0010
0000
,  // measure 36
1000
0000
0100
0000
0010
0001
0010
0100
,  // measure 37
2000
0000
0000
0010
,  // measure 38
3002
0000
0203
0000
,  // measure 39
0310
0010
0010
0010
;

//---------------dance-single - Chewi----------------
#NOTES:
     dance-single:
     Chewi:
     Hard:
     8:
     0.317,0.293,0.080,0.071,0.022: // measure 1
0000
0000
0000
0000
,  // measure 2
0000
0000
0000
0000
,  // measure 3
0000
0000
0000
0000
,  // measure 4
0000
0000
0000
0000
,  // measure 5
1000
0100
0010
0001
1000
0001
0000
0100
,  // measure 6
0010
0000
0010
1000
0010
0001
0010
1000
,  // measure 7
0100
0010
0001
1000
0100
0010
0000
0001
,  // measure 8
0010
0100
1000
0001
1000
0010
0000
0000
,  // measure 9
0100
0100
0100
0000
0010
0010
0010
0000
,  // measure 10
0010
1000
0001
0010
0100
0010
0001
1000
,  // measure 11
0010
0010
0000
0000
0100
0100
0000
0000
,  // measure 12
0100
0010
1000
0001
0010
0100
1000
0100
,  // measure 13
0010
0000
0001
0000
0100
0000
0000
0000
1010
0000
0000
0010
0000
0000
0000
0000
,  // measure 14
0010
0000
1000
0000
0100
0000
0000
0000
1100
0000
0000
0100
0000
0000
0000
0000
,  // measure 15
1000
0001
0100
0010
1000
0001
0010
0000
,  // measure 16
0100
0010
0001
1000
0010
0100
0001
0000
,  // measure 17
0100
0010
1000
0001
0010
0100
1000
1000
,  // measure 18
0100
0010
0001
0100
0010
0100
0001
0001
,  // measure 19
0100
0010
1000
0001
0010
0100
0010
0010
,  // measure 20
0001
0010
0100
1000
0010
0001
0100
1000
,  // measure 21
0100
0000
1000
0000
0001
0000
0100
0000
0010
0000
0000
0110
0000
0000
0000
0000
,  // measure 22
0010
0100
0001
1000
0100
0010
0001
1000
,  // measure 23
0100
1000
0001
0000
0100
0001
1000
0000
,  // measure 24
0010
0001
0100
0001
0010
0001
0100
0001
,  // measure 25
0010
0000
0100
0000
0001
0000
0010
0000
0100
0000
0000
0110
0000
0000
0000
0000
,  // measure 26
0010
1000
0100
0001
0010
1000
0100
0010
,  // measure 27
1000
0100
1000
0010
1000
0100
1000
0010
,  // measure 28
0100
0100
0010
0010
0110
0000
1001
0000
,  // measure 29
0001
0010
0100
1000
0100
0100
0000
0100
,  // measure 30
0001
0010
1000
0010
0100
0100
0000
0100
,  // measure 31
0010
1000
0001
0010
0100
1000
0100
0010
,  // measure 32
0001
0100
0010
0001
0100
0001
0010
0001
,  // measure 33
0100
0100
0100
0000
0010
0010
0010
0000
,  // measure 34
0010
1000
0001
0010
0001
0001
1000
1000
,  // measure 35
0010
0100
0110
0000
0100
0001
0011
0000
,  // measure 36
0001
0000
0000
0010
0000
0000
1000
0000
0100
0000
0010
0000
0001
0000
1000
0000
,  // measure 37
2002
0000
0000
0000
0000
3000
1000
1000
,  // measure 38
2003
0000
0000
0010
3020
0000
0100
0100
,  // measure 39
0230
0302
0023
2030
,  // measure 40
3000
0000
0000
0000
;
