#TITLE:INFERNO;
#SUBTITLE:;
#ARTIST:Caldeira feat. Kanako Hoshino;
#TITLETRANSLIT:;
#SUBTITLETRANSLIT:;
#ARTISTTRANSLIT:;
#CREDIT:Chewphoria~;
#BANNER:INFERNO.png;
#BACKGROUND:INFERNO-bg.png;
#LYRICSPATH:;
#CDTITLE:;
#MUSIC:INFERNO.mp3;
#OFFSET:-0.440;
#SAMPLESTART:102.659;
#SAMPLELENGTH:15.000;
#SELECTABLE:YES;
#BPMS:0.000=134.990;
#STOPS:;
#BGCHANGES:;

//---------------dance-single - Chewphoria~----------------
#NOTES:
     dance-single:
     Chewphoria~:
     Hard:
     7:
     0.436,0.435,0.319,0.257,0.000:
0000
0000
0000
0000
,
0000
0000
0000
0000
,
0000
0000
0000
0000
,
0000
0000
0000
0000
,
2000
0000
0000
0000
,
3200
0000
0000
0000
,
0320
0000
0000
0000
,
0032
0000
0000
0000
,
0203
0010
1000
0010
,
0320
1000
0100
1000
,
2030
0001
3002
1000
,
0013
1000
0100
0001
0010
0000
0000
0000
,
1002
0000
0010
0000
1000
0000
0103
0010
,
2000
0000
0001
0000
0010
0000
3100
0010
,
0002
0000
0100
0000
0010
0000
1003
0100
,
0002
0000
0100
0000
0010
0000
1003
0100
,
0020
0000
0001
0000
0100
0000
1030
0010
,
0200
0000
0001
0000
0010
0000
1300
0010
,
0001
0000
0001
0010
1000
0000
0001
1000
,
0100
0011
0101
1100
,
1010
1001
0010
0100
,
0011
0000
1001
0000
0100
0000
0110
1000
,
1001
0000
0011
0000
0200
1000
1300
0000
,
2010
0010
0010
3010
,
0011
1010
0100
0001
,
1100
0000
0101
0000
0100
0010
0100
0000
,
1001
0001
0110
0010
,
1000
0010
1000
0010
0100
0001
0100
0000
,
0010
0010
0010
0000
2000
0000
3100
0000
,
0010
0010
0010
0000
0002
0000
0103
0000
,
0010
1000
0010
0000
0001
0010
0001
0000
,
1000
0100
1000
0000
0001
0100
0010
1000
,
0001
0010
0001
0000
1000
0001
0010
0001
,
1000
0010
1000
0000
0001
1000
0100
1000
,
0001
0100
0001
0000
1000
0100
1000
0000
,
1000
0010
0001
0010
1000
0100
0001
0100
,
0000
0000
0000
0000
,
2000
0000
0100
0000
3002
0000
0103
0010
,
0200
0000
0010
0000
0302
0000
1003
0001
,
2000
0000
0010
0000
3002
0000
0013
0100
,
0020
0001
0130
1000
,
1000
0010
0100
0001
0100
0010
1000
0000
,
0001
0010
0100
0010
0001
0100
0010
0000
,
1000
0010
1010
0000
0100
0001
0101
0000
,
0010
0100
0110
0000
0011
0000
1001
0000
,
1000
0000
0001
0000
1000
0010
0001
0000
,
1000
0000
0001
0000
0001
0100
1000
0000
,
1000
0000
0100
0000
1000
0010
0001
0000
,
0001
0100
1000
0000
1000
0100
0001
0000
,
1000
0000
0001
0000
0001
0010
1000
0000
,
1000
0000
0001
0000
1000
0100
0001
0000
,
1000
0000
0001
0000
1000
0010
0001
0100
,
1000
0100
0001
0010
1000
0010
0001
0100
,
0010
0000
0000
0000
,
2001
0000
0100
0000
0001
0000
3010
0100
,
0002
0000
1000
0000
0100
0000
0013
0100
,
2000
0000
0010
0000
0100
0000
3001
0010
,
2000
0000
0010
0000
0100
0000
3001
0010
,
0200
0000
1000
0000
0010
0000
0301
0100
,
0020
0000
1000
0000
0100
0000
0031
0100
,
1000
0000
1000
0100
0001
0000
1000
0001
,
0010
1100
1010
0011
,
0101
1001
0100
0010
,
1100
0000
1001
0000
0010
0000
0110
0001
,
1001
0000
1100
0000
0020
0001
0031
0000
,
0102
0100
0100
0103
,
1100
0101
0010
1000
,
0011
0000
1010
0000
0010
0100
0010
0000
,
1001
1000
0110
0100
,
0001
0100
0001
0100
0010
1000
0010
0000
;

//---------------dance-single - Chewphoria~----------------
#NOTES:
     dance-single:
     Chewphoria~:
     Beginner:
     1:
     0.164,0.217,0.101,0.016,0.000:
0000
0000
0000
0000
,
0000
0000
0000
0000
,
0000
0000
0000
0000
,
0000
0000
0000
0000
,
1000
0000
0000
0000
,
0100
0000
0000
0000
,
0010
0000
0000
0000
,
0001
0000
0000
0000
,
1001
0000
0000
0000
,
0100
0000
0000
0000
,
0010
0000
0000
0000
,
0110
0000
0000
0000
,
1000
0000
1000
0000
,
0001
0000
0001
0000
,
1000
0000
1000
0000
,
0001
0000
0001
0000
,
0010
0000
0010
0000
,
0100
0000
0100
0000
,
1001
0000
1000
0000
,
1000
1000
1000
0000
,
1000
0000
0001
0000
,
0010
0000
0010
0000
,
0001
0000
1000
0000
,
0100
0000
0100
0000
,
0010
0000
0100
0000
,
0010
0000
0100
0000
,
1000
0000
0001
0000
,
1000
0000
0001
0000
,
1001
0000
1000
1000
,
1000
0000
0100
0000
,
0110
0000
0010
0010
,
0010
0000
0010
0000
,
0110
0000
1000
0000
,
0001
0000
1000
0000
,
0001
0000
0010
0000
,
0100
0000
1000
1000
,
0000
0000
0000
0000
,
1000
0000
0001
0000
,
0100
0000
0010
0000
,
0010
0000
0100
0000
,
1000
0000
0001
0000
,
1000
0000
0001
0000
,
0010
0000
0010
0000
,
0110
0000
1000
0000
,
0001
0000
1001
0000
,
0100
0100
0100
0000
,
0010
0000
0010
0000
,
0010
0010
0010
0000
,
1000
0000
0001
0000
,
1000
1000
1000
0000
,
0001
0000
0100
0000
,
0010
0010
0010
0000
,
0100
0000
0100
0000
,
1001
0000
0000
0000
,
2000
0000
0000
3000
,
1000
0000
0001
0000
,
0002
0000
0000
0003
,
0001
0000
1000
0000
,
0110
0000
1000
0000
,
0001
0000
1000
0000
,
0010
0010
0010
0000
,
0100
0100
0100
0000
,
0100
0000
0001
0000
,
1000
0000
0010
0000
,
0010
0000
1000
0000
,
0100
0000
0001
0000
,
1000
1000
1000
0000
,
0001
0001
0001
0000
,
1000
0000
1001
0000
,
0001
0000
1001
1001
;

//---------------dance-single - Chewphoria~----------------
#NOTES:
     dance-single:
     Chewphoria~:
     Easy:
     3:
     0.270,0.272,0.070,0.148,0.000:
0000
0000
0000
0000
,
0000
0000
0000
0000
,
0000
0000
0000
0000
,
0000
0000
0000
0000
,
2000
0000
0000
0000
,
3002
0000
0000
0000
,
2003
0000
0000
0000
,
3002
0000
0000
0000
,
0203
0000
0000
0000
,
0320
0000
0000
0000
,
0230
0000
0320
0000
,
1030
1000
0001
0001
,
1000
0100
1000
0100
,
0001
0100
0001
0100
,
1000
0100
1000
0100
,
0001
0100
0001
0100
,
0001
0010
0001
0010
,
1000
0010
1000
0010
,
1001
0000
0110
0000
,
0010
1000
0100
0001
,
0010
1000
0010
1000
,
0010
1000
0010
1000
,
0010
0001
0010
0001
,
0010
0001
0010
0001
,
1000
0001
0100
0010
,
0100
0010
0100
0010
,
0010
0100
0001
1000
,
0100
0010
0100
0010
,
0002
0000
0010
0103
,
1000
0000
1000
0010
,
2000
0000
0100
3010
,
0001
0000
0001
1000
,
1001
0100
0010
0100
,
0010
1000
0010
1000
,
0010
0001
0100
1000
,
0100
0001
0010
1000
,
0000
0000
0000
0000
,
1001
1000
0100
0001
,
0100
1000
0100
0001
,
0010
1000
0010
0001
,
0010
1000
0010
0001
,
1001
1000
0001
1000
,
0010
0100
0010
0100
,
1001
0000
0110
0000
,
0100
1000
0010
0001
,
0200
0000
1000
1000
,
2300
0000
0010
0010
,
3020
0000
0100
0100
,
0230
0000
0001
0001
,
0302
0000
0010
0010
,
0023
0000
0001
0001
,
0032
0000
1000
0000
,
0100
0010
1000
1000
,
1003
0000
0000
0000
,
1000
0100
0100
0000
,
0001
0010
0001
0010
,
0001
0010
0010
0000
,
1000
0010
1000
0010
,
1000
1000
1000
1000
,
0001
0001
0001
0001
,
0200
0000
0020
0300
,
1000
1000
1000
1030
,
1000
0100
0010
0100
,
1000
0100
0010
0100
,
1000
0010
0001
0010
,
1000
0010
0001
0010
,
0001
0010
0100
0001
,
0010
0100
0001
0010
,
0110
0000
1001
0000
,
0100
0001
0010
1000
;

//---------------dance-single - Chewphoria~----------------
#NOTES:
     dance-single:
     Chewphoria~:
     Medium:
     6:
     0.347,0.407,0.257,0.109,0.000:
0000
0000
0000
0000
,
0000
0000
0000
0000
,
0000
0000
0000
0000
,
0000
0000
0000
0000
,
0020
0000
0000
0000
,
0032
0000
0000
0000
,
0203
0000
0000
0000
,
2300
0000
0000
0000
,
3010
0000
0100
0000
0010
0100
0010
0000
,
0100
0000
0010
0000
0100
0010
0100
0000
,
0001
1000
0100
0000
1000
0001
0100
0000
,
0110
1001
0110
0000
,
0010
0000
0001
0000
0010
0001
0100
0000
,
0010
0100
0010
0100
,
0010
0000
1000
0000
0010
1000
0100
0000
,
0010
0100
0010
0100
,
0001
1001
1000
1001
,
0001
1000
0001
0000
1000
0001
1000
0000
,
0102
0000
2003
0000
,
3010
0000
0100
0000
0010
0010
0010
0000
,
1000
0100
0010
0001
,
1000
0100
0010
0001
,
1000
0010
0100
0001
,
1000
0010
0100
0001
,
0010
0001
0100
1000
,
0010
1000
0100
0001
,
0010
0100
1000
0001
,
0100
0010
1000
0001
,
2100
0010
0001
0010
,
3001
0000
1000
0000
0001
1000
0001
0000
,
0102
0010
1000
0010
,
1003
0000
0100
0000
1000
0100
1000
0100
,
1000
0000
0001
0000
0100
0010
0100
0000
,
0010
0100
0001
1000
,
0100
0000
1000
0000
0001
0010
0100
0000
,
1000
1010
0001
0011
,
0000
0000
0000
0000
,
1002
0000
0100
0010
,
1000
0100
0010
1003
,
2001
0100
0100
0001
,
0010
0100
3001
0000
,
0110
1000
0001
1000
,
0010
0010
0010
0010
,
2100
0001
0010
3001
,
0001
1000
0001
1000
0001
1000
0001
0000
,
1010
0100
0001
0100
,
0100
1000
0100
1000
,
1000
0010
1000
0010
,
0001
0010
0001
0010
,
0001
0000
0100
0000
0000
0000
0001
0100
,
0010
1000
0100
0010
,
1000
0100
0010
0001
,
1000
0000
0001
0000
1000
0001
0010
0100
,
1000
0000
0000
0000
,
2100
0100
0100
3100
,
0001
1000
0001
1000
,
0102
0100
0100
0103
,
0100
0001
0100
0001
,
2001
0010
0001
0010
,
0001
0010
3001
0010
,
1100
0010
0010
0000
0101
0010
0010
0000
,
1000
0000
0001
0000
1000
0001
1000
0000
,
1100
0001
1100
0001
,
1000
0010
0001
0100
,
0101
1000
0101
1000
,
0100
0001
0010
1000
,
1001
0010
1001
0100
,
1001
1001
0110
0110
,
0010
0100
0010
0000
0001
1000
0001
0000
,
0101
0000
1100
0000
0101
0100
0100
0000
;
