#TITLE:IN THE ZONE;
#SUBTITLE:;
#ARTIST:U1 (NPD3 style) & KIDD KAZMEO;
#TITLETRANSLIT:;
#SUBTITLETRANSLIT:;
#ARTISTTRANSLIT:;
#GENRE:;
#CREDIT:Chewi☆;
#MENUCOLOR:#00FFFF;
#METERTYPE:DDR X;
#BANNER:IN THE ZONE.png;
#BACKGROUND:IN THE ZONE-bg.png;
#LYRICSPATH:;
#CDTITLE:./CDTITLES/DanceDanceRevolution skyMIX2 -FREEDOM-.png;
#MUSIC:IN THE ZONE.mp3;
#OFFSET:-3.926;
#SAMPLESTART:3.924;
#SAMPLELENGTH:15.000;
#SELECTABLE:YES;
#LISTSORT:;
#DISPLAYBPM:124.000;
#BPMS:0.000=124.000;
#STOPS:55.000=0.242
,74.500=0.242
,78.000=0.242
,81.500=0.242
;
#BGCHANGES:;
#ATTACKS:;

//---------------dance-single - Chewi----------------
#NOTES:
     dance-single:
     Chewi:
     Beginner:
     3:
     0.150,0.164,0.068,0.000,0.000:
0000
0000
0000
0000
,
0000
0000
0000
0000
,
0000
0000
0000
0000
,
0000
0000
0000
0000
,
1000
0000
1000
0000
,
0001
0000
0001
0000
,
0010
0000
0010
0000
,
1000
0000
1000
0000
,
0001
0000
0001
0000
,
1000
0000
1000
0000
,
0100
0000
0000
0000
,
0100
0100
0100
0000
,
1001
0000
0000
0000
,
1000
0000
1000
0000
1000
0000
0000
1000
,
0000
0000
0000
0001
0000
0000
0000
0001
,
0000
0000
0000
0001
0000
0000
0000
0100
,
0000
0000
0000
0010
0000
0000
0000
0010
,
0000
0000
0000
0010
0000
0000
0000
1000
,
0000
1000
0000
1000
0000
0000
0001
0000
,
0001
0000
0001
0000
0000
1000
0000
1000
,
0000
1000
0000
0000
0010
0000
0010
0000
,
0010
0000
0100
0000
,
0100
0000
0010
0000
,
0010
0000
1000
0000
,
1000
0000
0001
0001
,
0001
0000
0001
0000
,
0001
0000
1000
0000
,
1000
0000
0010
0000
,
0010
0000
0100
0100
,
0100
0000
0110
0000
,
0000
0000
1000
1000
,
1000
0000
1001
0000
,
0001
0000
1000
0000
,
0001
0000
1001
0000
,
0001
0000
0100
0100
,
0100
0000
0110
0000
,
0010
0010
0010
0000
,
1000
1000
1000
0000
,
0001
0000
1000
0000
,
1001
0000
0001
0000
,
0010
0000
0100
0000
,
1000
1000
1000
0000
;

//---------------dance-single - Chewi----------------
#NOTES:
     dance-single:
     Chewi:
     Easy:
     5:
     0.282,0.356,0.260,0.169,0.000:
0000
0000
0000
0000
,
0000
0000
0000
0000
,
0000
0000
0000
0000
,
0000
0000
0000
0000
,
1000
0100
0010
0011
,
0001
0100
1000
0010
,
1000
0100
0010
0011
,
0010
1000
0100
0001
,
0010
0100
1000
0001
,
0100
0010
1000
0001
,
2000
0000
0000
0000
,
3002
0000
0000
0000
,
0013
0010
0110
0100
,
0100
0100
0110
0010
,
0000
1000
0000
0010
0000
0101
0000
0000
,
0000
0001
0000
0010
0000
1100
0000
0000
,
0000
0001
0000
1000
0000
1001
0000
1000
,
0000
0010
0000
0100
0000
0110
0000
0000
,
0000
0010
0000
1000
0000
0100
0000
0000
,
0010
0000
0001
0000
0100
0000
0000
0010
,
0000
1000
0000
0100
0001
0000
0010
0000
,
1000
0001
0010
0100
,
0010
0110
0001
1000
,
0001
1000
0001
0100
,
0010
1000
1001
0010
,
1000
1001
1000
0100
,
0010
0001
1000
0100
,
0001
1001
0001
0100
,
0010
1000
1001
0010
,
1000
1001
0002
0010
,
0100
1003
0100
0100
,
0010
0010
2000
0100
,
0010
3001
0010
0010
,
0100
0100
0100
0101
,
0010
0011
0010
0110
,
0100
1001
2000
0000
,
0100
0000
3002
0000
,
0010
0000
1003
1010
,
0010
0110
0100
0101
,
0001
1001
0002
0023
,
0230
2300
3200
2300
,
3002
1003
0220
0000
,
0330
0000
0000
0000
;

//---------------dance-single - Chewi----------------
#NOTES:
     dance-single:
     Chewi:
     Medium:
     7:
     0.347,0.356,0.327,0.237,0.000:
0000
0000
0000
0000
,
0000
0000
0000
0000
,
0000
0000
0000
0000
,
0000
0000
0000
0000
,
2000
0000
3100
0000
0001
0100
0001
0000
,
0002
0000
0103
0000
1000
0100
1000
0000
,
0002
0000
1003
0000
0010
0100
0010
0000
,
2000
0000
3001
0000
0010
0100
0010
0000
,
0002
0023
0230
1300
,
1000
0100
0010
0011
,
2002
0000
0000
3003
,
0001
0001
0001
0001
,
0100
0000
0010
0000
1000
0001
1000
0000
,
0100
0000
0010
0000
0001
1000
0001
0000
,
1000
1010
0001
0011
,
1000
1100
0001
0101
,
0100
0100
0100
0000
0010
0010
0010
0000
,
1000
0001
1000
0001
1000
0001
0000
0000
,
1000
0000
1100
0000
0001
0010
0000
0001
,
0000
0011
0000
1000
0010
0000
1000
0000
,
1010
0000
0010
0100
0000
0100
0001
0100
,
0001
0100
0001
0000
0000
0001
0000
0011
,
0000
0001
0010
0000
0000
1000
0000
1100
,
0000
1000
0100
0000
0000
0001
0000
1001
,
0000
0001
0010
0000
0001
0000
1100
0000
,
0011
0000
1010
0000
0000
1000
0000
1001
,
0000
0001
1000
0000
0000
0100
0000
0110
,
0000
0010
0100
0000
0000
0010
0000
0011
,
0000
0010
0001
0000
1000
0000
1100
0000
,
0011
0000
0101
0000
0100
0010
0100
0000
,
0020
0000
2030
0000
3001
0010
0001
0000
,
0002
0000
2003
0000
3000
1001
0000
1001
,
0000
0010
0010
0000
0000
0110
0000
0110
,
0000
1000
1000
0000
0001
0000
0010
0000
,
0100
1100
1000
0100
,
0010
0011
2002
0000
,
0000
3003
0100
0010
,
0010
0100
0020
1030
,
0100
0001
0100
0000
0020
0000
0031
0000
,
0010
1000
0010
0000
2000
0000
3001
0000
,
0010
0100
0010
0000
0200
0000
0310
0000
,
0001
1000
0001
0000
2002
0000
0000
0000
,
3003
0000
0000
0000
;

//---------------dance-single - Chewi----------------
#NOTES:
     dance-single:
     Chewi:
     Hard:
     10:
     0.445,0.450,0.260,0.045,0.000:
0000
0000
0000
0000
,
0000
0000
0000
0000
,
0000
0000
0000
0000
,
0000
0000
0000
0000
,
1000
0100
0010
0001
0010
0001
0010
0000
,
0001
0010
0100
1000
0100
1000
0100
0000
,
0001
1000
0010
0100
0001
1000
0010
0000
,
1000
0100
0010
0001
0100
0010
0001
0000
,
0001
0010
0100
1000
0100
1000
0100
0000
,
1000
0001
0100
0010
0100
0010
0100
0000
,
0220
0000
0000
0330
,
0010
1010
0010
0011
,
0001
0100
1000
0000
0100
0000
0100
0000
,
1000
0100
0001
0010
1000
1001
1000
0000
,
0010
1000
0010
1000
0010
1000
0010
1000
,
0001
0100
0001
0100
0001
0100
0001
0100
,
0001
0010
0001
0010
0001
0010
0001
0010
,
0100
0010
0100
0010
0100
0010
0100
0010
,
1000
0100
0010
1000
0100
0010
0001
0000
,
0011
0000
0011
0000
0100
0010
1000
0100
,
1000
0010
1000
0010
0100
0000
0011
0000
,
0011
0000
0100
0000
0010
1000
0000
1001
,
0000
0001
0010
0100
1000
0010
0000
1010
,
0000
0100
0010
0100
0010
1000
0000
1001
,
0000
0001
0010
0100
1000
0001
1000
0001
,
0010
0100
0010
0000
0000
0001
0000
0011
,
0000
0001
0010
0100
1000
0010
0000
1010
,
0000
0100
0010
1000
0001
0010
0000
0011
,
0000
0010
0001
0100
1000
0010
1000
0010
,
0001
0010
0001
0010
0100
0100
0010
0100
,
0010
0010
0010
0000
0001
1000
0010
1000
,
0001
0010
0001
0000
1000
0100
1000
1000
,
0100
0100
0100
0000
0001
0100
1000
0100
,
0001
1000
0101
0000
0100
0010
1000
0001
,
0010
0100
1000
0001
1000
0001
0010
0100
,
1000
0001
0011
0000
1000
0010
0001
0000
,
0100
0000
0110
0000
1000
0100
0001
0010
,
0100
0010
0110
0000
1010
0100
0010
0001
,
0100
0010
0100
0001
0101
0010
1000
0001
,
0010
0100
1000
0010
1001
0001
1000
0100
,
0010
0001
1000
0010
0101
0100
0010
1000
,
0001
0010
0100
0000
2200
0000
0000
0000
,
3300
0000
0000
0000
;

//---------------dance-double - Chewi----------------
#NOTES:
     dance-double:
     Chewi:
     Easy:
     4:
     0.206,0.258,0.056,0.034,0.000: // measure 1
00000000
00000000
00000000
00000000
,  // measure 2
00000000
00000000
00000000
00000000
,  // measure 3
00000000
00000000
00000000
00000000
,  // measure 4
00000000
00000000
00000000
00000000
,  // measure 5
10000000
00100000
01000000
00010000
,  // measure 6
00200000
00000000
00000000
00300000
,  // measure 7
01000000
00100000
00010000
00001000
,  // measure 8
00020000
00000000
00000000
00030000
,  // measure 9
00010000
00001000
00000010
00000001
,  // measure 10
00000020
00000000
00000000
00000030
,  // measure 11
00000110
00000000
00000100
00000000
,  // measure 12
00001000
00000100
00010000
00001000
,  // measure 13
00010000
00000000
00100000
00000000
,  // measure 14
01000000
00000000
10000000
00000000
00100000
00000000
00010000
00010000
,  // measure 15
00000000
00010000
00000000
01000000
00000000
01000000
00000000
10000000
,  // measure 16
00000000
01000000
00000000
00010000
00000000
00100000
00000000
00001000
,  // measure 17
00000000
00001000
00000000
00010000
00000000
00010000
00000000
00001000
,  // measure 18
00000000
00000100
00000000
00000010
00000000
00001000
00000000
00000001
,  // measure 19
00000000
00001000
00000000
00000010
00000000
00000110
00000100
00000000
,  // measure 20
00000100
00000000
00000010
00000000
00000110
00000010
00000000
00000010
,  // measure 21
00000000
00001000
00000000
00011000
00001000
00000000
00010000
00000000
,  // measure 22
01000000
10000000
01000000
00000000
,  // measure 23
01000000
00000000
00100000
00010000
,  // measure 24
01000000
00000000
00010000
00000000
,  // measure 25
00001000
00000000
00010000
00001000
,  // measure 26
00000010
00000000
00000100
00000000
,  // measure 27
00001000
00000000
00000001
00000010
,  // measure 28
00000001
00000000
00000100
00000000
,  // measure 29
00000010
00000000
00000100
00000010
,  // measure 30
00001000
00000100
00001000
00000100
,  // measure 31
00010000
00000000
00001000
00001000
,  // measure 32
00010000
00010000
00001000
00010000
,  // measure 33
01000000
00000000
10000000
10000000
,  // measure 34
01000000
01000000
00100000
00010000
,  // measure 35
01000000
00000000
00010000
00010000
,  // measure 36
00100000
00100000
00001000
00000000
,  // measure 37
00010000
00000000
00010000
00000100
,  // measure 38
00001000
00000010
00000001
00000100
,  // measure 39
00001000
00000000
00000010
00000100
,  // measure 40
00000010
00000000
00001000
00000010
,  // measure 41
00001000
00000000
00001000
00010000
,  // measure 42
01000000
00000000
00011000
00000000
;

//---------------dance-double - Chewi----------------
#NOTES:
     dance-double:
     Chewi:
     Medium:
     7:
     0.311,0.328,0.226,0.023,0.000: // measure 1
00000000
00000000
00000000
00000000
,  // measure 2
00000000
00000000
00000000
00000000
,  // measure 3
00000000
00000000
00000000
00000000
,  // measure 4
00000000
00000000
00000000
00000000
,  // measure 5
20000000
00000000
31000000
00000000
00100000
01000000
00100000
00000000
,  // measure 6
00020000
00000000
01030000
00000000
00010000
00100000
00010000
00000000
,  // measure 7
00100000
00001000
00010000
00000100
,  // measure 8
00010000
00001000
00000010
00000100
,  // measure 9
00001000
00000100
00001000
00000001
,  // measure 10
00000100
00000001
00000100
00001000
,  // measure 11
00001001
00000000
00000000
00000000
00001000
00001000
00001000
00000000
,  // measure 12
00001100
00000000
00000000
00000000
00000100
00000100
00000100
00000000
,  // measure 13
00010100
00000000
00000000
00000000
00010000
00001000
00100000
00000000
,  // measure 14
00101000
00000000
00000000
00000000
00100000
00010000
00100000
00000000
,  // measure 15
00010000
10000000
00100000
01000000
,  // measure 16
00100000
00000000
10000000
00000000
00010000
00100000
01000000
00000000
,  // measure 17
10000000
01000000
00100000
00010000
,  // measure 18
00001000
00000000
00010000
00000000
00000100
00001000
00000010
00000000
,  // measure 19
00000100
00000000
00000001
00000000
00001000
00001001
00000000
00000001
,  // measure 20
00000000
00000010
00000000
00000100
00000110
00000000
00000001
00000000
,  // measure 21
00000010
00000000
00000100
00001100
00000100
00000000
00010000
00000000
,  // measure 22
00001000
00000000
00100000
00000000
00010000
00100000
01000000
10000000
,  // measure 23
00000000
00000000
10000000
00000000
10000000
00100000
01000000
00010000
,  // measure 24
00000000
00000000
00100000
00000000
00100000
00001000
00010000
00001000
,  // measure 25
00000000
00001001
00001010
00001001
,  // measure 26
00001100
00000000
00001001
00000000
00000001
00000100
00000010
00001000
,  // measure 27
00000000
00000000
00000010
00000000
00001000
00000100
00010000
00001000
,  // measure 28
00000000
00000000
00001000
00000000
00001000
00010000
01000000
10000000
,  // measure 29
00000000
00000000
10000000
00000000
10000000
01000000
00100000
00010000
,  // measure 30
00000000
10010000
01010000
10010000
,  // measure 31
00110000
00100000
00010000
00100000
,  // measure 32
00001000
00010000
00001000
00000100
,  // measure 33
00000010
00001000
00000001
00000100
,  // measure 34
00000010
00000000
00001000
00000000
00000001
00000001
00000001
00000000
,  // measure 35
00001000
00001000
00001000
00000000
00000110
00000000
00001000
00000000
,  // measure 36
00000110
00000001
00001100
00000100
,  // measure 37
00001000
00000100
00001000
00000000
00000100
00000000
00010000
00000000
,  // measure 38
00001000
00100000
00010000
01000000
,  // measure 39
00100000
10000000
00100000
00000000
01000000
00000000
00100000
00000000
,  // measure 40
10000000
01000000
00100000
00000000
00010000
00000000
00100000
00000000
,  // measure 41
00001000
00010000
00000100
00000000
00001000
00000000
00000100
00000000
,  // measure 42
00010000
00001000
00010000
00000000
00011000
00000000
00000000
00000000
;

//---------------dance-double - Chewi----------------
#NOTES:
     dance-double:
     Chewi:
     Hard:
     10:
     0.411,0.401,0.056,0.023,0.000: // measure 1
00000000
00000000
00000000
00000000
,  // measure 2
00000000
00000000
00000000
00000000
,  // measure 3
00000000
00000000
00000000
00000000
,  // measure 4
00000000
00000000
00000000
00000000
,  // measure 5
10000000
00100000
01000000
00010000
00100000
01000000
00100000
00000000
,  // measure 6
01000000
00100000
00010000
00001000
00000100
00000010
00000001
00000000
,  // measure 7
00000001
00000100
00001000
00000010
00000100
00000010
00001000
00000000
,  // measure 8
00000010
00001000
00010000
01000000
00010000
00100000
01000000
00000000
,  // measure 9
10000000
01000000
00100000
00010000
10000000
01000000
10000000
00000000
,  // measure 10
00010000
01000000
00100000
10000000
00100000
01000000
00100000
00000000
,  // measure 11
01020000
00000000
00100000
00000000
01000000
01000000
01030000
00000000
,  // measure 12
00100000
00010000
00001000
00000010
,  // measure 13
00002010
00000000
00000100
00000000
00000010
00000010
00003010
00000000
,  // measure 14
00000010
00001000
00000001
00000100
00000000
00000010
00000010
00000000
,  // measure 15
00000010
00001000
00000100
00001000
00000010
00001000
00001000
00000000
,  // measure 16
00000010
00001000
00010000
00001000
00010000
01000000
10000000
00000000
,  // measure 17
10000000
01000000
10000000
00100000
10000000
01000000
10000000
10000000
,  // measure 18
00100000
00010000
00100000
10000000
00100000
00010000
00000000
00100000
,  // measure 19
00010000
00001000
00000000
00010000
00000000
00011000
00010000
00000000
,  // measure 20
00001000
00000000
00000010
00000100
00000001
00000010
00000000
00000100
,  // measure 21
00000000
00000010
00000001
00000100
00000010
00000010
00000100
00000100
,  // measure 22
00000010
00001000
00000001
00000000
00000001
00000100
00001000
00000100
,  // measure 23
00000001
00000100
00001000
00000000
00001000
00000100
00010000
00001000
,  // measure 24
00100000
00010000
01000000
00000000
00010000
00100000
10000000
00100000
,  // measure 25
00010000
00100000
10000000
00000000
10000000
00100000
01000000
00100000
,  // measure 26
10000000
01000000
00100000
00000000
00010000
01000000
00010000
00100000
,  // measure 27
00010000
01000000
00010000
00000000
00100000
00001000
00010000
00000100
,  // measure 28
00010000
00001000
00000010
00000000
00001000
00000010
00000001
00000010
,  // measure 29
00001000
00000010
00000001
00000000
00000001
00000100
00001000
00000100
,  // measure 30
00000001
00000100
00001000
00000000
00001001
00000100
00000010
00001000
,  // measure 31
00000001
00000010
00000100
00000000
00001000
00000100
00001000
00000000
,  // measure 32
00010000
00001000
00010000
00000000
00001000
00100000
00010000
00000000
,  // measure 33
00010000
00100000
10000000
00000000
10000000
01000000
00010000
00000000
,  // measure 34
01000000
00100000
01000000
00000000
00100000
01000000
00010000
01000000
,  // measure 35
00100000
10000000
00100000
01000000
10000000
00100000
10000000
01000000
,  // measure 36
00100000
00010000
01000000
00000000
01100000
01000000
00010000
00100000
,  // measure 37
01000000
10000000
00100000
00000000
01000000
00010000
00100000
00000000
,  // measure 38
00001000
00010000
00000100
00000000
00001000
00000010
00000100
00000001
,  // measure 39
00000000
00000100
00000100
00000000
00000010
00001000
00000001
00000010
,  // measure 40
00000000
00000100
00000100
00000000
00000100
00010000
00001000
00100000
,  // measure 41
00000000
00001000
00010000
00000000
00001000
00010000
01000000
10000000
,  // measure 42
00000000
01000000
01000000
00000000
00100000
01000000
00100000
00000000
;
