#TITLE:IEVAN POLKKA (VOCAL MIX);
#SUBTITLE:;
#ARTIST:Black Man;
#TITLETRANSLIT:;
#SUBTITLETRANSLIT:;
#ARTISTTRANSLIT:;
#GENRE:;
#CREDIT:Chewphoria~;
#MENUCOLOR:;
#METERTYPE:DDR;
#BANNER:IEVAN POLKKA (VOCAL MIX).png;
#BACKGROUND:IEVAN POLKKA (VOCAL MIX)-bg.png;
#LYRICSPATH:;
#CDTITLE:;
#MUSIC:IEVAN POLKKA (VOCAL MIX).mp3;
#OFFSET:-3.415;
#SAMPLESTART:43.409;
#SAMPLELENGTH:15.000;
#SELECTABLE:YES;
#LISTSORT:;
#DISPLAYBPM:144.000;
#BPMS:0.000=143.930;
#STOPS:160.000=1.251
;
#BGCHANGES:;
#ATTACKS:;

//---------------dance-single - Chewphoria~----------------
#NOTES:
     dance-single:
     Chewphoria~:
     Beginner:
     1:
     0.109,0.139,0.012,0.000,0.000: // measure 1
1000
0000
0000
0000
,  // measure 2
0010
0000
0000
0000
,  // measure 3
1000
0000
0000
0000
,  // measure 4
0100
0000
0000
0000
,  // measure 5
0001
0000
0000
0000
,  // measure 6
0010
0000
0000
0000
,  // measure 7
0001
0000
0000
0000
,  // measure 8
0100
0000
0000
0000
,  // measure 9
0010
0000
0000
0000
,  // measure 10
0100
0000
0000
0000
,  // measure 11
1000
0000
0000
0000
,  // measure 12
0001
0000
0000
0000
,  // measure 13
0100
0000
0000
0000
,  // measure 14
0010
0000
0000
0000
,  // measure 15
1000
0000
0000
0000
,  // measure 16
0100
0000
0000
0000
,  // measure 17
0001
0000
0000
0000
,  // measure 18
1001
0000
0000
0000
,  // measure 19
0010
0000
0000
0000
,  // measure 20
0100
0000
0000
0000
,  // measure 21
1000
0000
0000
0000
,  // measure 22
0001
0000
0000
0000
,  // measure 23
0100
0000
0000
0000
,  // measure 24
1000
0000
0000
0000
,  // measure 25
0010
0000
0000
0000
,  // measure 26
0010
0010
0000
0000
,  // measure 27
0001
0000
0001
0000
,  // measure 28
0100
0000
0100
0000
,  // measure 29
0010
0000
0010
0000
,  // measure 30
1000
0000
1000
0000
,  // measure 31
0001
0000
0100
0000
,  // measure 32
0001
0000
0100
0000
,  // measure 33
0010
0000
0010
0000
,  // measure 34
0100
0000
0100
0000
,  // measure 35
0001
0000
0001
0000
,  // measure 36
1000
0000
1000
0000
,  // measure 37
1000
0000
0100
0000
,  // measure 38
1000
0000
0100
0000
,  // measure 39
0001
0000
0100
0000
,  // measure 40
0001
0000
0100
0000
,  // measure 41
0010
0010
0000
0000
,  // measure 42
0000
0100
0000
0000
,  // measure 43
0000
1000
0000
0000
,  // measure 44
0000
0010
0000
0000
,  // measure 45
0000
0001
0000
0000
,  // measure 46
0000
0010
0000
0000
,  // measure 47
0000
0100
0000
0000
,  // measure 48
0000
1000
0000
0000
;

//---------------dance-single - Chewphoria~----------------
#NOTES:
     dance-single:
     Chewphoria~:
     Easy:
     3:
     0.185,0.222,0.059,0.047,0.000: // measure 1
1000
0000
0000
0000
,  // measure 2
0100
0000
0000
0000
,  // measure 3
0001
0000
0000
0000
,  // measure 4
0100
0000
0000
0000
,  // measure 5
1000
1000
0000
0000
,  // measure 6
0001
0001
0000
0000
,  // measure 7
1000
0001
1000
0000
,  // measure 8
0001
1000
0001
0000
,  // measure 9
0200
0000
0000
0300
,  // measure 10
0020
0000
0000
0030
,  // measure 11
2000
0000
0000
3000
,  // measure 12
0200
0000
0000
0300
,  // measure 13
0010
0010
0000
0000
,  // measure 14
0001
0001
0000
0000
,  // measure 15
1000
1000
0000
0000
,  // measure 16
0010
0010
0000
0000
,  // measure 17
0110
0000
0100
0000
,  // measure 18
0100
0000
0100
0000
,  // measure 19
0010
0000
0010
0000
,  // measure 20
0010
0000
0010
0000
,  // measure 21
1001
0000
1000
0000
,  // measure 22
1000
0000
1000
0000
,  // measure 23
0001
0000
0001
0000
,  // measure 24
0001
0000
0001
0000
,  // measure 25
1000
0100
1000
0000
,  // measure 26
0001
0100
0001
0000
,  // measure 27
1000
0100
1000
0000
,  // measure 28
0001
0100
0001
0000
,  // measure 29
1000
0100
0010
0000
,  // measure 30
1000
0100
0010
0000
,  // measure 31
1000
0100
0001
0000
,  // measure 32
1000
0100
0001
0000
,  // measure 33
0001
0010
0001
0000
,  // measure 34
1000
0010
1000
0000
,  // measure 35
0001
0010
0001
0000
,  // measure 36
1000
0010
1000
0000
,  // measure 37
0001
0010
0100
0000
,  // measure 38
0001
0010
0100
0000
,  // measure 39
0001
0010
0100
0001
,  // measure 40
0010
1000
0100
0010
,  // measure 41
0000
1000
0000
0000
,  // measure 42
0000
1001
0000
0000
,  // measure 43
0000
0100
0000
0000
,  // measure 44
0000
0110
0000
0000
,  // measure 45
0000
0001
0000
0000
,  // measure 46
0000
1001
0000
0000
,  // measure 47
0000
0010
0000
0100
,  // measure 48
0000
0010
0000
0000
;

//---------------dance-single - Chewphoria~----------------
#NOTES:
     dance-single:
     Chewphoria~:
     Medium:
     6:
     0.341,0.339,0.118,0.000,0.000: // measure 1
0000
1000
0000
0010
0000
1000
0000
0010
,  // measure 2
0000
0001
0000
0010
0000
0001
0000
0010
,  // measure 3
0000
0001
0000
0100
0000
0001
0000
0100
,  // measure 4
0000
1000
0000
0100
0000
1000
0000
0100
,  // measure 5
0000
1000
0000
0001
0000
0100
0000
0010
,  // measure 6
0000
1000
0000
0001
0000
0010
0000
0100
,  // measure 7
0000
1000
0000
0100
0000
0010
0000
1000
,  // measure 8
0000
0100
0000
1000
0000
0010
0000
0001
,  // measure 9
0000
0100
0000
0100
0000
0010
0000
0010
,  // measure 10
0000
0100
0000
0100
0000
0010
0000
0010
,  // measure 11
0000
0001
0000
0001
0000
1000
0000
1000
,  // measure 12
0000
0010
0000
0010
0000
0100
0000
0100
,  // measure 13
0000
0001
0000
0001
0000
0100
0000
0100
,  // measure 14
0000
0010
0000
0010
0000
1000
0000
1000
,  // measure 15
0000
0001
0000
0001
0000
1000
0000
1000
,  // measure 16
0001
1000
1100
0000
,  // measure 17
1000
0000
0100
0000
,  // measure 18
0010
0000
0001
0000
,  // measure 19
1000
0000
0010
0000
,  // measure 20
0100
0000
0001
0000
,  // measure 21
0100
0010
1000
0001
,  // measure 22
0010
0100
1000
0001
,  // measure 23
0100
0001
0100
0000
1000
0000
0100
0000
,  // measure 24
1000
0100
1000
0000
0100
0000
0010
0000
,  // measure 25
0011
0000
1000
0000
,  // measure 26
1000
0000
0001
0000
0100
0010
0100
0000
,  // measure 27
0101
0000
0100
0000
,  // measure 28
0010
1000
0010
0000
1000
0000
1001
0000
,  // measure 29
1000
0000
0000
0000
0100
0010
0100
0000
,  // measure 30
0001
0000
0000
0000
0100
0010
0100
0000
,  // measure 31
0010
1000
0100
0001
,  // measure 32
0010
0001
0100
1000
,  // measure 33
0010
0100
0010
0000
0100
0000
0100
0000
,  // measure 34
0100
0010
0100
0000
0100
0000
0100
0000
,  // measure 35
0100
0001
0100
0000
0100
0000
0100
0000
,  // measure 36
0100
1000
0100
0000
0100
0000
0100
0000
,  // measure 37
1000
0000
0010
0000
0001
0100
1000
0000
,  // measure 38
0010
0000
1000
0000
0100
0001
0010
0000
,  // measure 39
0100
0000
0010
0000
1000
0001
1000
0000
,  // measure 40
0001
0100
0010
1000
,  // measure 41
1010
1000
0001
1000
,  // measure 42
1100
0001
1000
0001
,  // measure 43
0101
0100
0010
0100
,  // measure 44
0100
0001
0100
1000
,  // measure 45
1000
0000
0010
0000
1000
0000
0100
0001
,  // measure 46
0010
0000
1000
0000
0010
0000
1000
0100
,  // measure 47
0010
1000
0100
0010
,  // measure 48
0001
1000
1100
0011
,  // measure 49
0101
0000
0000
0000
;

//---------------dance-single - Chewphoria~----------------
#NOTES:
     dance-single:
     Chewphoria~:
     Hard:
     10:
     0.522,0.480,0.094,0.000,0.047: // measure 1
0001
0010
0001
0000
0010
1000
0010
0000
,  // measure 2
1000
0100
1000
0000
0100
0001
0100
0000
,  // measure 3
0001
1000
0001
0000
1000
0001
1000
0000
,  // measure 4
0010
0100
0001
1000
0100
0010
0001
0000
,  // measure 5
0010
0001
0010
0000
0001
0100
0001
0000
,  // measure 6
0100
1000
0100
0000
1000
0010
1000
0000
,  // measure 7
1000
0010
0010
0000
0010
0100
0100
0000
,  // measure 8
0100
0001
0001
1000
0001
0000
0000
0000
,  // measure 9
1000
0010
1000
0000
0010
0001
0010
0000
,  // measure 10
0010
1000
0010
0000
0010
0001
0010
0000
,  // measure 11
0010
0100
0010
0000
0100
1000
0100
0000
,  // measure 12
1000
0100
1000
0000
1000
0001
1000
0000
,  // measure 13
0001
0100
0001
0000
0100
0010
0100
0000
,  // measure 14
0010
1000
0010
0000
1000
0001
1000
0000
,  // measure 15
0001
0010
0100
0000
0001
0010
0100
1000
,  // measure 16
0010
0100
0110
0000
,  // measure 17
0010
0010
0010
0000
0100
0000
0101
0000
,  // measure 18
0001
0001
0001
0000
1000
0000
1001
0000
,  // measure 19
0010
0010
0010
0000
0100
0000
1100
0000
,  // measure 20
1000
0100
0010
0001
0010
0000
0001
0000
,  // measure 21
0100
0010
0100
0001
0100
0000
1010
0000
,  // measure 22
0001
0010
0100
0010
0001
0000
0011
0000
,  // measure 23
1000
0100
1000
0000
0001
0100
0001
0000
,  // measure 24
0100
0010
1000
0001
0010
0100
1000
0000
,  // measure 25
0100
0100
0100
0000
1000
0010
0001
0000
,  // measure 26
0001
0010
1000
0100
0010
1000
0100
0010
,  // measure 27
0001
0010
0001
0000
0001
0100
0001
0000
,  // measure 28
0001
0100
0010
1000
0001
0100
0010
1000
,  // measure 29
0001
0001
1000
1000
0001
0010
0100
0000
,  // measure 30
1000
0100
0010
0001
0010
0010
0010
0000
,  // measure 31
0001
0010
0100
1000
0010
0100
0001
0100
,  // measure 32
1000
0100
0001
0010
1000
0010
0001
0000
,  // measure 33
1000
0001
1000
0000
0010
0010
0010
0000
,  // measure 34
0100
0010
0100
0001
0100
0010
0100
0000
,  // measure 35
0010
1000
0100
0000
0010
1000
0100
0000
,  // measure 36
1000
0100
0010
0001
1000
0100
0010
0001
,  // measure 37
0010
0010
0001
0001
0010
0100
0010
0000
,  // measure 38
0010
0100
1000
0010
0100
0100
0100
0000
,  // measure 39
0100
0010
0100
0001
0100
0010
1000
0001
,  // measure 40
0010
0100
1000
0001
1000
1000
1000
0000
,  // measure 41
0101
0000
0000
0000
0010
0000
0000
0000
1000
0000
0000
0010
0000
0000
1000
0000
,  // measure 42
0100
0000
0010
0000
0001
0000
0000
0000
0001
0000
0000
0001
0000
0000
0010
0000
,  // measure 43
0100
0000
1000
0000
0001
0000
0000
0000
1001
0000
0000
0100
0000
0000
0010
0000
,  // measure 44
1000
0000
0000
0000
0000
0000
0010
0000
0000
0000
0000
0000
1000
0000
0000
0000
0000
0000
0000
0000
0000
0000
0100
0000
0000
0000
0000
0000
0000
0000
0000
0000
0000
0001
0000
0000
0000
0000
0000
0000
0000
0000
0100
0000
0000
0000
0000
0000
,  // measure 45
1000
0000
0100
0000
0010
0000
0000
0000
0010
0000
0000
0010
0000
0000
0001
0000
,  // measure 46
0010
0000
0100
0000
1000
0000
0000
0000
1000
0000
0000
1000
0000
0000
1000
0000
,  // measure 47
0001
0000
0100
0000
0010
0000
0000
0000
0010
0000
0000
0010
0000
0000
0010
0000
,  // measure 48
1000
0010
0001
0010
1000
0100
0001
0100
,  // measure 49
1000
0000
0000
0000
;
