#TITLE:I'm Sorry;
#SUBTITLE:;
#ARTIST:青山テルマ;
#TITLETRANSLIT:;
#SUBTITLETRANSLIT:;
#ARTISTTRANSLIT:Thelma Aoyama;
#GENRE:;
#CREDIT:Tiffany West;
#BANNER:I'm Sorry.png;
#BACKGROUND:I'm Sorry-bg.png;
#LYRICSPATH:;
#CDTITLE:cdtitle.png;
#MUSIC:I'm Sorry.ogg;
#OFFSET:0.004000;
#SAMPLESTART:47.610001;
#SAMPLELENGTH:12.000000;
#SELECTABLE:YES;
#BPMS:0.000000=120.976997
;
#STOPS:
;
#BGCHANGES:;
#KEYSOUNDS:;
#ATTACKS:;

//---------------dance-single - Tiffany West----------------
#NOTES:
     dance-single:
     Tiffany West:
     Beginner:
     1:
     0.084906,0.143226,0.116919,0.038973,0.000000,61.000000,49.000000,12.000000,4.000000,0.000000,0.000000,0.084906,0.143226,0.116919,0.038973,0.000000,61.000000,49.000000,12.000000,4.000000,0.000000,0.000000:
0000
0000
0000
0000
,
0000
0000
0000
0000
,
0000
0000
0000
0000
,
0000
0000
0000
0000
,
0010
0000
0000
0000
,
0100
0000
0000
0000
,
0001
0000
0000
0000
,
1000
0000
0000
0000
,
1001
0000
0000
0000
,
0001
0000
0000
0000
,
0001
0000
0000
0000
,
0001
0000
0000
0000
,
1001
0000
0000
0000
,
1000
0000
0000
0000
,
1000
0000
0000
0000
,
1000
0000
0000
0000
,
0110
0000
0000
0000
,
0100
0000
0000
0000
,
0100
0000
0000
0000
,
0100
0000
0000
0000
,
0110
0000
0000
0000
,
0010
0000
0000
0000
,
0010
0000
0000
0000
,
0010
0000
0000
0000
,
0000
0001
0000
0000
,
0001
0000
0000
0001
,
0000
0000
0000
0000
,
0000
0001
0001
0000
,
1000
0000
0000
1000
,
0000
0000
1000
0000
,
0000
1000
0000
0000
,
0000
1000
1000
0000
,
1001
0000
0000
0000
,
0110
0000
0000
0000
,
1001
0000
0000
0000
,
0110
0000
0000
0000
,
0110
0000
0000
0000
,
1001
0000
0000
0000
,
0110
0000
0000
0000
,
1001
0000
0000
0000
,
1000
0000
0000
0000
,
0002
0000
0000
0003
,
0001
0000
0000
0000
,
2000
0000
0000
3000
,
1000
0000
0000
0000
,
0020
0000
0000
0030
,
0010
0000
0000
0000
,
0200
0000
0000
0300
,
0100
0000
0000
0000
,
0100
0000
0000
0000
;

//---------------dance-single - Tiffany West----------------
#NOTES:
     dance-single:
     Tiffany West:
     Easy:
     4:
     0.150325,0.190968,0.038973,0.048716,0.000000,108.000000,104.000000,4.000000,5.000000,0.000000,0.000000,0.150325,0.190968,0.038973,0.048716,0.000000,108.000000,104.000000,4.000000,5.000000,0.000000,0.000000:
0000
0000
0000
0000
,
0000
0000
0000
0000
,
0000
0000
0000
0000
,
0000
0000
0000
0000
,
1000
0100
0000
0100
,
0001
0100
0000
0100
,
1000
0010
0000
0010
,
0001
0010
0000
0010
,
0020
0000
0000
0030
,
0010
0100
0010
0000
,
0200
0000
0000
0300
,
0100
0010
0100
0000
,
2000
0000
0000
3000
,
1000
0001
1000
0000
,
0002
0000
0000
0003
,
0001
1000
0001
0000
,
0001
0000
0100
0000
,
1000
0000
0100
0000
,
0001
0100
1000
0000
,
1000
0100
0001
0000
,
0001
0000
0010
0000
,
1000
0000
0010
0000
,
0001
0010
1000
0000
,
1000
0010
0001
0000
,
1001
0000
1000
0000
,
0001
0000
1000
0000
,
0001
0000
0100
0100
,
0100
0100
0100
0000
,
0110
0000
0010
0000
,
0100
0000
0010
0000
,
0100
0000
0001
0001
,
0001
0001
0001
0000
,
0001
0000
0001
0000
,
1000
0000
1000
0000
,
0001
0000
0001
0000
,
0010
0000
0010
0000
,
0100
0000
0100
0000
,
0010
0000
0010
0000
,
0001
0000
0001
0000
,
1000
0000
1000
0000
,
2000
0000
0000
3000
,
0001
0000
0001
0000
,
1000
0001
1000
0000
,
1000
0000
1000
0000
,
0001
1000
0001
0000
,
0010
0000
0010
0000
,
0100
0010
0100
0000
,
0100
0000
0100
0000
,
0110
0000
0000
0000
,
1001
0000
0000
0000
;

//---------------dance-single - Tiffany West----------------
#NOTES:
     dance-single:
     Tiffany West:
     Medium:
     7:
     0.249149,0.286452,0.048716,0.097433,0.000000,179.000000,174.000000,5.000000,10.000000,0.000000,0.000000,0.249149,0.286452,0.048716,0.097433,0.000000,179.000000,174.000000,5.000000,10.000000,0.000000,0.000000:
0000
0000
0000
0000
,
0000
0000
0000
0000
,
0000
0000
0000
0000
,
0000
0000
0000
0000
,
1000
0100
1000
0100
,
0001
0100
0001
0100
,
1000
0100
1000
0100
,
0001
0100
0001
0100
,
0200
0310
0010
0100
,
2000
3001
0001
1000
,
0002
0100
0010
1003
,
2000
0100
0010
3001
,
0002
0013
0100
0010
,
0200
1300
1000
0001
,
0200
1000
0010
0301
,
2000
0010
0001
3100
,
1000
0100
0001
0100
,
1000
0001
0100
1000
,
0100
0100
0100
0000
0000
0000
0000
0000
,
0010
0010
0010
0000
0000
0000
0000
0000
,
0010
1000
0001
0010
,
1000
0010
0001
0010
,
0010
0010
0010
0000
0000
0000
0100
0100
,
0100
0000
0000
0100
0000
0100
0000
0000
,
0000
0000
1000
0000
1000
1000
1000
0000
,
0001
0000
1000
1000
1000
0000
0001
0000
,
1000
1000
1000
0000
0001
0000
0000
0000
,
0110
0110
0110
0000
,
0001
0000
0001
0001
0001
0000
1000
0000
,
0001
0001
0001
0000
1000
0000
0001
0001
,
0001
1000
0001
0000
,
1000
0100
0001
0010
,
1000
0000
0001
0000
1000
1000
1000
0000
,
0001
0000
1000
0000
0001
0001
0001
0000
,
1000
0000
0100
0000
0010
0010
0010
0000
,
0001
0100
0010
1000
,
0001
0000
0100
0000
0001
0001
0001
0000
,
1000
0000
0100
0000
1000
1000
1000
0000
,
0100
0000
0010
0000
0100
0100
0100
0000
,
1000
0001
0100
0010
,
0220
0000
0000
0330
,
1000
0000
1000
0000
,
1000
0100
0001
0010
,
1000
0000
1000
0000
,
1000
0010
0001
0100
,
1000
0000
1000
0000
,
0001
1000
0100
0010
,
0010
0000
0100
0000
,
1000
0000
0001
0000
,
1001
0000
0000
0000
;

//---------------dance-single - Tiffany West----------------
#NOTES:
     dance-single:
     Tiffany West:
     Hard:
     9:
     0.388339,0.358065,0.077946,0.116919,0.000000,279.000000,271.000000,8.000000,12.000000,0.000000,0.000000,0.388339,0.358065,0.077946,0.116919,0.000000,279.000000,271.000000,8.000000,12.000000,0.000000,0.000000:
// measure 0
0000
0000
0000
0000
,  // measure 1
0000
0000
0000
0000
,  // measure 2
0000
0000
0000
0000
,  // measure 3
0000
0000
0000
0000
,  // measure 4
1000
1000
0100
0000
0010
0001
0010
0000
,  // measure 5
0001
0001
0100
0000
0001
0100
0001
0000
,  // measure 6
0100
0100
0010
0000
1000
0001
1000
0000
,  // measure 7
0100
0100
0010
0000
0001
1000
0001
0000
,  // measure 8
0000
1000
0100
0010
0001
0001
0100
0100
,  // measure 9
0000
0010
0100
0001
1000
1000
0001
0001
,  // measure 10
0000
0010
0100
1000
0001
0001
0010
0010
,  // measure 11
0000
0100
1000
0001
0010
0000
0011
0000
,  // measure 12
0000
0001
0010
0100
1000
1000
0010
0010
,  // measure 13
0000
0100
0010
1000
0001
0001
1000
1000
,  // measure 14
0000
0100
0010
0001
1000
1000
0100
0100
,  // measure 15
0000
0010
0001
1000
0100
0000
1100
0000
,  // measure 16
1000
0100
1000
0010
2000
0000
3001
1000
,  // measure 17
0200
0000
0310
0001
2000
0000
3100
0010
,  // measure 18
0001
0001
0001
0000
1000
0000
1001
0100
,  // measure 19
0010
0010
0010
0000
0100
0000
0101
0000
,  // measure 20
0001
0010
0001
0100
0002
0000
1003
0001
,  // measure 21
0020
0000
0130
1000
0002
0000
0013
0100
,  // measure 22
1000
1000
1000
0000
0001
0000
1001
0010
,  // measure 23
0100
0000
0100
0010
0000
1001
0000
0000
,  // measure 24
0000
0000
1000
0100
0001
0100
1000
0000
,  // measure 25
1000
0100
0001
0100
1000
0000
1000
0100
,  // measure 26
0001
0100
1000
0000
1000
0000
0000
0000
,  // measure 27
0000
0001
0000
1000
0001
1000
0000
0000
,  // measure 28
0001
0100
1000
0100
0001
0000
0001
0100
,  // measure 29
1000
0100
0001
0000
0001
0100
1000
0100
,  // measure 30
0001
0001
1000
1000
,  // measure 31
0100
0000
0010
0100
0000
0100
0010
0000
,  // measure 32
0010
0001
1000
0010
0000
0100
0001
0000
,  // measure 33
1000
0100
0010
0001
0000
0010
0100
0000
,  // measure 34
1000
0010
0100
0001
0000
0100
0010
0000
,  // measure 35
1000
0001
0100
0010
1000
0100
0010
0001
,  // measure 36
1000
0100
1000
0010
0000
0010
1000
0000
,  // measure 37
0001
0010
0100
1000
0000
0100
0010
0000
,  // measure 38
0001
0100
0010
1000
0000
0010
0100
0000
,  // measure 39
0001
1000
0010
0100
0001
0010
0100
1000
,  // measure 40
0001
0001
1000
1000
,  // measure 41
0001
0100
0001
0000
0100
0001
0100
0000
,  // measure 42
0001
0100
0001
0100
0002
0000
0023
0000
,  // measure 43
0130
1000
0100
0000
1000
0100
1000
0000
,  // measure 44
0100
1000
0100
1000
0200
0000
2300
0000
,  // measure 45
3001
1000
0001
0000
1000
0001
1000
0000
,  // measure 46
0001
1000
0001
1000
0002
0000
0203
0000
,  // measure 47
0301
0100
0001
0000
0100
0001
0100
0000
,  // measure 48
0001
0100
1000
0100
0001
0000
1001
0000
,  // measure 49
0110
0000
0000
0000
;
