#VERSION:0.82;
#TITLE:I'm Not Yours (feat. 安室奈美恵);
#SUBTITLE:;
#ARTIST:蔡依林;
#TITLETRANSLIT:I'm Not Yours (feat. Namie Amuro);
#SUBTITLETRANSLIT:;
#ARTISTTRANSLIT:Jolin Tsai;
#GENRE:Electro;
#ORIGIN:;
#CREDIT:chewi;
#BANNER:I'm Not Yours (feat. Namie Amuro).png;
#BACKGROUND:I'm Not Yours (feat. Namie Amuro)-bg.png;
#PREVIEWVID:;
#JACKET:I'm Not Yours (feat. Namie Amuro)-jacket.png;
#CDIMAGE:;
#DISCIMAGE:;
#LYRICSPATH:;
#CDTITLE:cdtitle.png;
#MUSIC:I'm Not Yours (feat. Namie Amuro).ogg;
#OFFSET:-1.936000;
#SAMPLESTART:53.497002;
#SAMPLELENGTH:15.000000;
#SELECTABLE:YES;
#BPMS:0.000=128.000;
#STOPS:;
#DELAYS:;
#WARPS:;
#TIMESIGNATURES:0.000=4=4;
#TICKCOUNTS:0.000=4;
#COMBOS:0.000=1;
#SPEEDS:0.000=1.000=0.000=0;
#SCROLLS:0.000=1.000;
#FAKES:;
#LABELS:0.000=Song Start;
#BGCHANGES:0.000=I'm Not Yours (feat. Namie Amuro).avi=1.000=1=0=0=StretchNoLoop==CrossFade==,
99999=-nosongbg-=1.000=0=0=0 // don't automatically add -songbackground-
;
#KEYSOUNDS:;
#ATTACKS:
;

//---------------dance-single - ----------------
#NOTEDATA:;
#CHARTNAME:;
#STEPSTYPE:dance-single;
#DESCRIPTION:;
#CHARTSTYLE:;
#DIFFICULTY:Beginner;
#METER:2;
#RADARVALUES:0.081176,0.125011,0.000000,0.113647,0.000000,40.000000,0.000000,10.000000,0.000000,0.000000,0.000000,0.000000,0.000000,0.081176,0.125011,0.000000,0.113647,0.000000,40.000000,0.000000,10.000000,0.000000,0.000000,0.000000,0.000000,0.000000;
#CREDIT:;
#NOTES:
// measure 0
0000
0000
0000
0000
,  // measure 1
0000
0000
0000
0000
,  // measure 2
0000
0000
0000
0000
,  // measure 3
0000
0000
0000
0000
,  // measure 4
1000
0000
0000
0000
,  // measure 5
0001
0000
0000
0000
,  // measure 6
0200
0000
0000
0300
,  // measure 7
0200
0000
0000
0300
,  // measure 8
0001
0000
0000
0000
,  // measure 9
1000
0000
0000
0000
,  // measure 10
0001
0000
0000
0000
,  // measure 11
1000
0000
0000
0000
,  // measure 12
0010
0000
0000
0000
,  // measure 13
0100
0000
0000
0000
,  // measure 14
0020
0000
0000
0030
,  // measure 15
0020
0000
0000
0030
,  // measure 16
0010
0000
0000
0000
,  // measure 17
0010
0000
0000
0000
,  // measure 18
0100
0000
0000
0000
,  // measure 19
0100
0000
0000
0000
,  // measure 20
0002
0000
0000
0000
,  // measure 21
0000
0000
0000
0003
,  // measure 22
2000
0000
0000
0000
,  // measure 23
0000
0000
0000
3000
,  // measure 24
0020
0000
0000
0000
,  // measure 25
0000
0000
0000
0030
,  // measure 26
0200
0000
0000
0000
,  // measure 27
0000
0000
0000
0300
,  // measure 28
0100
0000
0100
0000
,  // measure 29
0100
0000
0000
0000
,  // measure 30
0001
0000
0001
0000
,  // measure 31
0001
0000
0000
0000
,  // measure 32
0010
0000
0010
0000
,  // measure 33
0010
0000
0000
0000
,  // measure 34
1000
0000
0000
0000
,  // measure 35
0001
0000
0000
0000
,  // measure 36
1000
0000
0000
0000
,  // measure 37
0001
0000
0000
0000
,  // measure 38
1000
0000
0000
0000
,  // measure 39
0002
0000
0000
0003
,  // measure 40
0001
0000
0000
0000
,  // measure 41
0100
0000
0000
0000
,  // measure 42
1000
0000
0000
0000
,  // measure 43
0020
0000
0000
0030
,  // measure 44
0010
0000
0000
0000
;

//---------------dance-single - ----------------
#NOTEDATA:;
#CHARTNAME:;
#STEPSTYPE:dance-single;
#DESCRIPTION:;
#CHARTSTYLE:;
#DIFFICULTY:Easy;
#METER:4;
#RADARVALUES:0.142870,0.198882,0.034094,0.113647,0.000000,75.000000,3.000000,10.000000,0.000000,0.000000,0.000000,0.000000,0.000000,0.142870,0.198882,0.034094,0.113647,0.000000,75.000000,3.000000,10.000000,0.000000,0.000000,0.000000,0.000000,0.000000;
#CREDIT:;
#NOTES:
0000
0000
0000
0000
,
0000
0000
0000
0000
,
0000
0000
0000
0000
,
0000
0000
0000
0000
,
1000
0000
1000
0000
,
0001
0000
0001
0000
,
0200
0000
0000
0300
,
0200
0000
0000
0300
,
0100
0000
0010
0000
,
1000
0000
0001
0000
,
1000
0000
0100
0000
,
0010
0000
0001
0000
,
1000
0000
0001
0000
,
0100
0000
0010
0000
,
0020
0000
0000
0030
,
0020
0000
0000
0030
,
0010
0000
0000
0000
,
0100
0000
0000
0000
,
0001
0000
0000
0000
,
1000
0000
0000
0000
,
1001
0000
0000
0000
,
1000
1000
1000
0000
,
0001
0000
0000
0000
,
0100
0100
0100
0000
,
0110
0000
0000
0000
,
0010
0010
0010
0000
,
0010
0000
1000
0000
,
0100
0000
0001
0000
,
0010
0000
0010
0000
,
0010
0010
0100
0100
,
1000
0000
1000
0000
,
1000
1000
0001
0001
,
0100
0000
0100
0000
,
0010
0000
0010
0000
,
1001
0000
0000
0000
,
1000
0001
1000
0001
,
2000
0000
0000
3000
,
0002
0000
0000
0003
,
0200
0000
0000
0300
,
0100
0100
0100
0100
,
0020
0000
0000
0030
,
2000
0000
0000
3000
,
0200
0000
0000
0300
,
0100
0100
0100
0100
;

//---------------dance-single - ----------------
#NOTEDATA:;
#CHARTNAME:;
#STEPSTYPE:dance-single;
#DESCRIPTION:;
#CHARTSTYLE:;
#DIFFICULTY:Medium;
#METER:7;
#RADARVALUES:0.288987,0.400036,0.147741,0.306846,0.011365,138.000000,13.000000,27.000000,0.000000,0.000000,0.000000,0.000000,0.000000,0.288987,0.400036,0.147741,0.306846,0.011365,138.000000,13.000000,27.000000,0.000000,0.000000,0.000000,0.000000,0.000000;
#CREDIT:;
#NOTES:
0000
0000
0000
0000
,
0000
0000
0000
0000
,
0000
0000
0000
0000
,
0000
0000
0000
0000
,
1000
0000
0000
1000
0000
0000
1000
0000
,
0001
0000
0000
0001
0000
0000
0001
0000
,
0200
1000
0001
1300
,
0020
1000
0001
1030
,
0100
0000
0000
0100
0000
0000
0100
0000
,
0010
0000
0000
0010
0000
0000
0010
0000
,
1000
0000
0000
1000
0000
0000
1000
0000
,
0001
0000
0000
0001
0000
0000
0001
0000
,
1000
0000
0000
0100
0000
0000
0010
0000
,
0001
0000
0000
0100
0000
0000
0010
0000
,
2000
0010
0001
3100
,
0002
0010
1000
0103
,
0101
0000
0100
0000
0100
0100
0100
0000
,
0010
1000
0100
1000
0010
1000
0100
0000
,
1100
0000
0100
0000
0100
0100
0100
0000
,
0100
0010
0100
0010
0000
0100
0010
0000
,
0022
0000
0000
0033
,
2002
0000
0000
3003
,
2020
0000
0000
3030
,
0220
0000
0000
0330
,
0202
0000
0000
0303
,
2002
0000
0000
3003
,
2200
0000
0000
3300
,
2002
0000
0000
3003
,
2000
0100
0001
3010
,
0001
0000
0010
0000
0100
1000
0010
0000
,
0200
0001
0010
0301
,
1000
0000
0010
0000
0100
0001
1000
0000
,
0200
0010
1000
0310
,
0010
0000
0001
0000
1000
0010
0100
0000
,
0220
0000
0000
0330
,
0100
0000
0100
0000
0100
0100
0100
0000
,
0010
0001
0010
0001
,
1000
0100
1000
0100
,
1000
0001
1000
0001
,
1000
0000
0000
1000
0000
0000
1000
0000
0001
0000
0000
0000
1001
0000
0000
0000
,
0100
0010
0100
0010
,
1000
0010
1000
0010
,
0100
0001
0100
0001
,
1000
0000
0000
0001
0000
0000
1000
0000
0001
0000
0000
0000
2002
0000
0000
0000
,
3003
0000
0000
0000
;

//---------------dance-single - ----------------
#NOTEDATA:;
#CHARTNAME:;
#STEPSTYPE:dance-single;
#DESCRIPTION:;
#CHARTSTYLE:;
#DIFFICULTY:Hard;
#METER:11;
#RADARVALUES:0.397763,0.450041,0.159105,0.204564,0.164788,213.000000,14.000000,18.000000,0.000000,0.000000,0.000000,0.000000,0.000000,0.397763,0.450041,0.159105,0.204564,0.164788,213.000000,14.000000,18.000000,0.000000,0.000000,0.000000,0.000000,0.000000;
#CREDIT:;
#NOTES:
0000
0000
0000
0000
,
0000
0000
0000
0000
,
0000
0000
0000
0000
,
0000
0000
0000
0000
,
1000
0000
0010
1000
0000
1000
0010
0000
,
0100
0000
0001
0100
0000
0100
0001
0000
,
1002
0000
0100
0000
1003
0100
0010
0000
,
2001
0000
0010
0000
3001
0100
0010
0000
,
0100
0010
1000
0000
0010
0100
0001
0000
,
1000
0000
0001
1000
0000
1000
0001
0000
,
1000
0100
0010
0000
0001
0010
0100
0000
,
1000
0000
0100
1000
0000
1000
0100
0000
,
1000
0001
0100
0000
0010
0100
0001
0000
,
0100
0000
0001
0100
0000
0100
0001
0000
,
1002
0000
0010
0000
1003
0100
1000
0000
,
2001
0000
0010
0000
3001
0100
0001
0000
,
0100
0000
0100
0000
0100
0010
1000
0000
,
0100
0010
0001
1000
0100
1000
0001
0000
,
1000
1000
0001
0001
0100
0010
0100
0000
,
0010
1000
0001
0100
0000
0101
1100
0000
,
2000
0000
0000
3200
0000
0000
0320
0000
,
0000
0000
0000
0000
,
0032
0000
0000
0203
0000
0000
0320
0000
,
0000
0000
0000
0000
0000
0000
0000
0130
,
0200
0000
0000
0302
0000
0000
2003
0000
,
0000
0000
0000
3000
,
1000
0000
0000
0100
0000
0000
0010
0000
0001
0000
0000
0000
1001
0000
0000
0000
,
1000
0000
0010
0000
0100
0000
0001
0000
1000
0000
0001
0000
1000
0001
1000
0000
,
1002
0100
1000
0013
,
0010
0010
0100
0100
1000
1000
0001
0001
,
1002
0100
0010
1003
,
1000
1000
0010
0010
0100
0100
0001
0001
,
0201
1000
0001
1300
,
0100
0001
0100
1000
0100
0001
0010
0000
,
0110
0000
0000
0000
,
1000
0000
1000
0000
1000
0000
0000
0001
1000
0000
0001
0000
1001
0000
0000
0000
,
1000
0000
1000
0100
0000
0100
0010
0000
0010
0001
0000
0001
,
1000
0000
1000
0010
0000
0010
0100
0000
0100
0001
0000
0001
,
0100
0000
0100
0010
0000
0010
1000
0000
1000
0001
0000
0001
,
1000
0000
0000
0100
0000
0000
0010
0000
0001
0000
0000
0000
0011
0000
0000
0000
,
0010
0000
0010
0100
0000
0100
1000
0000
1000
0001
0000
0001
,
0010
0000
0010
0100
0000
0100
0010
0000
0010
0001
0000
0001
,
0100
0000
0100
0010
0000
0010
1000
0000
1000
0010
0000
0010
,
1000
0000
0000
0100
0000
0000
0010
0000
0001
0000
0000
0000
2002
0000
0000
0000
,
3003
0000
0000
0000
;
