#TITLE:I'm Not Gay;
#SUBTITLE:;
#ARTIST:新裤子;
#TITLETRANSLIT:;
#SUBTITLETRANSLIT:;
#ARTISTTRANSLIT:New Pants;
#GENRE:Rock;
#CREDIT:chewi;
#BANNER:I'm Not Gay.png;
#BACKGROUND:I'm Not Gay-bg.png;
#LYRICSPATH:;
#CDTITLE:cdtitle.png;
#MUSIC:I'm Not Gay.ogg;
#OFFSET:-0.051000;
#SAMPLESTART:27.441000;
#SAMPLELENGTH:15.000000;
#SELECTABLE:YES;
#DISPLAYBPM:140.000000;
#BPMS:0.000000=140.000000
;
#STOPS:
;
#BGCHANGES:;
#KEYSOUNDS:;
#ATTACKS:;

//---------------dance-single - ----------------
#NOTES:
     dance-single:
     :
     Beginner:
     3:
     0.145852,0.245031,0.048617,0.038894,0.000000,105.000000,100.000000,5.000000,4.000000,0.000000,0.000000,0.145852,0.245031,0.048617,0.038894,0.000000,105.000000,100.000000,5.000000,4.000000,0.000000,0.000000:
// measure 0
0000
0000
0000
0000
,  // measure 1
0000
0000
0000
0000
,  // measure 2
0000
0000
0000
0000
,  // measure 3
0000
0000
0000
0000
,  // measure 4
1000
0000
1000
0000
,  // measure 5
1000
1000
1000
0000
,  // measure 6
0001
0000
0001
0000
,  // measure 7
0001
0001
0001
0000
,  // measure 8
0100
0000
0100
0000
,  // measure 9
0100
0100
0100
0000
,  // measure 10
0010
0000
0010
0000
,  // measure 11
0010
0010
0010
0000
,  // measure 12
0010
0010
0010
0010
,  // measure 13
0100
0100
0100
0100
,  // measure 14
0010
0010
0010
0010
,  // measure 15
0100
0100
0100
0100
,  // measure 16
0200
0000
0000
0000
,  // measure 17
0000
0000
0000
0300
,  // measure 18
0020
0000
0000
0000
,  // measure 19
0000
0000
0000
0030
,  // measure 20
0002
0000
0000
0000
,  // measure 21
0000
0000
0000
0003
,  // measure 22
2000
0000
0000
0000
,  // measure 23
0000
0000
0000
3000
,  // measure 24
0000
0000
0000
0000
,  // measure 25
1000
1000
1000
0000
,  // measure 26
0000
0000
0000
0000
,  // measure 27
0001
0001
0001
0000
,  // measure 28
0000
0000
0000
0000
,  // measure 29
0010
0010
0010
0000
,  // measure 30
0000
0000
0000
0000
,  // measure 31
0100
0100
0100
0000
,  // measure 32
0000
0000
0000
0000
,  // measure 33
0010
0010
0010
0010
,  // measure 34
0010
0000
0000
0000
,  // measure 35
1000
1000
1000
1000
,  // measure 36
1000
0000
0000
0000
,  // measure 37
0100
0100
0100
0100
,  // measure 38
0100
0000
0000
0000
,  // measure 39
0001
0001
0001
0001
,  // measure 40
0001
0000
0000
0000
,  // measure 41
1000
0000
0000
0000
,  // measure 42
0100
0000
0000
0000
,  // measure 43
1000
0000
0000
0000
,  // measure 44
0001
0000
0000
0000
,  // measure 45
1000
0000
0000
0000
,  // measure 46
0010
0000
0000
0000
,  // measure 47
1000
0000
0000
0000
,  // measure 48
1000
1000
1000
0000
,  // measure 49
0001
0000
1001
0000
,  // measure 50
0001
0001
0001
0000
,  // measure 51
1000
0000
1001
0000
,  // measure 52
0100
0100
0100
0000
,  // measure 53
0010
0000
0110
0000
,  // measure 54
0010
0010
0010
0000
,  // measure 55
0100
0000
0110
0000
,  // measure 56
1001
0000
0000
0000
;

//---------------dance-single - ----------------
#NOTES:
     dance-single:
     :
     Easy:
     6:
     0.252810,0.299483,0.126405,0.000000,0.000000,182.000000,169.000000,13.000000,0.000000,0.000000,0.000000,0.252810,0.299483,0.126405,0.000000,0.000000,182.000000,169.000000,13.000000,0.000000,0.000000,0.000000:
0000
0000
0000
0000
,
0000
0000
0000
0000
,
0000
0000
0000
0000
,
0000
0000
0000
0000
,
1000
0100
0001
0010
,
1000
0000
0000
0000
,
1000
0100
0001
0010
,
1000
0000
0000
0000
,
1000
0010
0001
0100
,
1000
0000
0000
0000
,
1000
0010
0001
0100
,
1000
0000
0000
0000
,
0001
0100
0010
0001
,
0100
0010
0001
0100
,
1000
0010
0100
1000
,
0010
0100
1000
0010
,
0100
0100
0100
0100
,
1000
1000
1000
1000
,
0010
0010
0010
0010
,
0001
0001
0001
0001
,
0100
0100
0100
0100
,
1000
1000
1000
1000
,
0010
0010
0010
0010
,
0001
0001
0001
0001
,
0001
0000
0000
0000
,
1001
1001
1001
0000
,
0000
0000
0000
0000
,
0110
0110
0110
0000
,
0000
0000
0000
0000
,
1001
1001
1001
0000
,
0000
0000
0000
0000
,
0110
0110
0110
0000
,
0010
0010
0010
0010
,
0010
1000
0001
0100
,
0100
0000
0000
0000
,
0010
0100
1000
0001
,
0010
0000
0000
0000
,
0001
0010
0100
1000
,
0001
0000
0000
0000
,
1000
0010
0100
0001
,
0100
0100
0100
0100
,
0010
0010
0010
0010
,
0001
0001
0001
0001
,
0100
0100
0100
0100
,
1000
1000
1000
1000
,
0010
0010
0010
0010
,
0100
0100
0100
0100
,
0001
0001
0001
0001
,
1000
0001
1000
0001
,
0010
0100
0010
0100
,
1000
0100
1000
0100
,
0010
0001
0010
0001
,
0010
0100
0010
0100
,
1000
0001
1000
0001
,
0100
0010
0100
0010
,
1000
0010
0001
0010
,
0110
0000
0000
0000
;

//---------------dance-single - ----------------
#NOTES:
     dance-single:
     :
     Medium:
     8:
     0.323652,0.353934,0.126405,0.000000,0.000000,233.000000,220.000000,13.000000,0.000000,0.000000,0.000000,0.323652,0.353934,0.126405,0.000000,0.000000,233.000000,220.000000,13.000000,0.000000,0.000000,0.000000:
0000
0000
0000
0000
,
0000
0000
0000
0000
,
0000
0000
0000
0000
,
0000
0000
0000
0000
,
1000
0100
0010
0001
,
1000
0001
0000
0001
0000
0000
0000
0000
,
0001
0100
0010
1000
,
0001
1000
0000
1000
0000
0000
0000
0000
,
1000
0100
0010
0001
,
0010
0001
0000
0001
0000
0000
0000
0000
,
0001
0010
0100
1000
,
0100
1000
0000
1000
0000
0000
0000
0000
,
1000
0001
0100
0000
0010
0010
0010
0000
,
1000
0001
0010
0000
0100
0100
0100
0000
,
1000
0001
0100
0000
0001
0001
0001
0000
,
0001
1000
0010
0000
1000
1000
1000
0000
,
0001
0100
1000
0010
,
0001
0100
1000
0010
,
0001
0010
1000
0100
,
0001
0010
1000
0100
,
0001
0010
0100
0001
,
0010
1000
0100
0010
,
1000
0100
0010
1000
,
0100
0010
0001
1000
,
0001
0001
0001
0000
0001
0000
0000
0000
,
1001
0110
1001
0000
,
1000
1000
1000
0000
1000
0000
0000
0000
,
1001
0110
1001
0000
,
0010
0010
0010
0000
0010
0000
0000
0000
,
0110
1001
0110
0000
,
0100
0100
0100
0000
0100
0000
0000
0000
,
0110
1001
0110
0000
,
0000
0000
0000
0000
,
0001
1000
0001
1000
0001
1000
0001
1000
,
0001
0000
0000
0000
,
1000
0001
1000
0001
1000
0001
1000
0001
,
1000
0000
0000
0000
,
0010
0100
0010
0100
0010
0100
0010
0100
,
0010
0000
0000
0000
,
0100
0010
0100
0010
0100
0010
0100
0010
,
0100
0100
1000
1000
,
0100
0001
0100
1000
,
0100
0100
0001
0001
,
0010
0100
1000
0000
0010
0100
0001
0000
,
0010
0010
0001
0001
,
0010
1000
0010
0001
,
0010
0010
0100
0100
,
1000
0100
0010
0000
0001
0100
0010
0000
,
1000
0001
0010
0000
0000
0000
0000
0000
,
0010
0010
0010
0000
0010
0010
0010
0000
,
0001
1000
0010
0000
0000
0000
0000
0000
,
0010
0010
0010
0000
0010
0010
0010
0000
,
1000
0001
0100
0000
0000
0000
0000
0000
,
0100
0100
0100
0000
0100
0100
0100
0000
,
0001
1000
0100
0000
0000
0000
0000
0000
,
0100
0100
0100
0000
0100
0100
0100
0000
,
1001
0000
0000
0000
;

//---------------dance-single - ----------------
#NOTES:
     dance-single:
     :
     Hard:
     12:
     0.519511,0.707868,0.515344,0.000000,0.000000,374.000000,321.000000,53.000000,0.000000,0.000000,0.000000,0.519511,0.707868,0.515344,0.000000,0.000000,374.000000,321.000000,53.000000,0.000000,0.000000,0.000000:
0000
0000
0000
0000
,
0000
0000
0000
0000
,
0000
0000
0000
0000
,
0000
0000
0000
0000
,
1000
0100
0010
0001
,
1000
0100
0000
1001
0000
0000
0000
0000
,
0001
0100
0010
1000
,
0001
0010
0000
1001
0000
0000
0000
0000
,
1000
0100
0010
0001
,
1000
0100
0000
1001
0000
0000
0000
0000
,
0001
0010
0100
1000
,
0001
1000
0000
1001
0000
0000
0000
0000
,
1000
0010
0001
0100
1000
0010
0001
0000
,
0100
1000
0010
0001
0100
1000
0010
0000
,
0001
0100
1000
0010
0001
0100
1000
0000
,
0010
0001
0100
1000
0010
0001
0100
0000
,
1000
0100
1000
0100
1000
0100
1000
0100
,
0001
0100
0001
0100
0001
0100
0001
0100
,
1000
0100
0001
0100
1000
0100
0001
0100
,
1000
0010
0001
0010
1000
0010
0001
0010
,
0001
0010
0001
0010
0001
0010
0001
0010
,
1000
0010
1000
0010
1000
0010
1000
0010
,
0001
0010
1000
0010
0001
0010
1000
0010
,
0001
0010
1000
0100
0001
0100
1000
0001
,
1000
0100
0010
0001
1000
0000
0000
0000
,
1001
0110
1001
0000
,
0001
0010
0100
1000
0100
0000
0000
0000
,
1100
0011
1100
0011
1100
0000
0000
0000
,
0001
0010
0100
1000
0001
0000
0000
0000
,
1001
0110
1001
0000
,
0100
0010
1000
0001
1000
0000
0000
0000
,
1001
0101
1001
0101
1001
0000
0000
0000
,
0001
1000
0100
0010
0001
1000
0100
0010
,
0011
0011
1100
1100
0101
0101
1010
1010
,
0001
0100
0010
1000
0001
0010
0100
1000
,
1001
1001
1100
1100
1001
1001
0101
0101
,
0100
0010
1000
0001
0010
0100
1000
0001
,
1001
1001
1100
1100
1001
1001
0011
0011
,
0010
0100
0010
0001
0010
0100
1000
0010
,
1100
1100
1010
1010
0101
0101
0011
0011
,
0001
0001
0001
0000
0000
0000
0000
0000
,
1000
1000
1000
0000
0010
0010
0010
0000
,
0100
0100
0100
0000
0000
0000
0000
0000
,
0001
0001
0001
0000
0100
0100
0100
0000
,
0010
0010
0010
0000
0000
0000
0000
0000
,
0001
0001
0001
0000
0100
0100
0100
0000
,
0010
0010
0010
0000
0000
0000
0000
0000
,
0001
0001
0001
0000
1000
1000
1000
0000
,
0100
0010
0100
0010
0100
0010
0100
0010
,
0001
0010
0100
1000
0001
0010
0100
1000
,
0001
1000
0001
1000
0001
1000
0001
1000
,
0001
0100
1000
0100
0001
0100
1000
0100
,
0010
0100
0010
0100
0010
0100
0010
0100
,
0010
1000
0001
0100
0010
1000
0001
0100
,
0001
0010
0001
0010
0001
0010
0001
0010
,
0001
0010
0100
1000
0001
0010
0100
1000
,
1001
0000
0000
0000
;
