#TITLE:I'm A Slave 4 U;
#SUBTITLE:;
#ARTIST:Britney Spears;
#TITLETRANSLIT:;
#SUBTITLETRANSLIT:;
#ARTISTTRANSLIT:;
#GENRE:;
#CREDIT:Chewi☆;
#MENUCOLOR:#FFFFFF;
#METERTYPE:DDR;
#BANNER:I'm A Slave 4 U.png;
#BACKGROUND:I'm A Slave 4 U-bg.png;
#LYRICSPATH:;
#CDTITLE:;
#MUSIC:I'm A Slave 4 U.mp3;
#OFFSET:-0.743;
#SAMPLESTART:61.288;
#SAMPLELENGTH:15.000;
#SELECTABLE:YES;
#LISTSORT:;
#DISPLAYBPM:110.000;
#BPMS:0.000=110.000;
#STOPS:146.500=0.545
,149.500=0.545
,160.500=0.545
,163.500=0.545
;
#BGCHANGES:;
#ATTACKS:;

//---------------dance-single - Chewi----------------
#NOTES:
     dance-single:
     Chewi:
     Beginner:
     2:
     0.087,0.132,0.026,0.146,0.000: // measure 1
0000
0000
0000
0000
,  // measure 2
0000
0000
0000
0000
,  // measure 3
0000
0000
0000
0000
,  // measure 4
0000
0000
0000
0000
,  // measure 5
1000
0000
0000
0000
,  // measure 6
0100
0000
0000
0000
,  // measure 7
1000
0000
0000
0000
,  // measure 8
0110
0000
0000
0000
,  // measure 9
0001
0000
0000
0000
,  // measure 10
1000
0000
0000
0000
,  // measure 11
1000
0000
0000
0000
,  // measure 12
0001
0000
0000
0000
,  // measure 13
0100
0000
0000
0000
,  // measure 14
0010
0000
0000
0000
,  // measure 15
1000
0000
0000
0000
,  // measure 16
0001
0000
0000
0000
,  // measure 17
0002
0000
0000
0003
,  // measure 18
2000
0000
0000
3000
,  // measure 19
0020
0000
0000
0030
,  // measure 20
0010
0000
0000
0000
,  // measure 21
1000
0000
0000
0000
,  // measure 22
0100
0000
0000
0000
,  // measure 23
0001
0000
0000
0000
,  // measure 24
0100
0000
0000
0000
,  // measure 25
1001
0000
0000
0000
,  // measure 26
0110
0000
0000
0000
,  // measure 27
0100
0000
0000
0000
,  // measure 28
1000
0000
0000
0000
,  // measure 29
2000
0000
0000
3000
,  // measure 30
1000
0000
0000
0000
,  // measure 31
0020
0000
0000
0030
,  // measure 32
0010
0000
0000
0000
,  // measure 33
0002
0000
0000
0003
,  // measure 34
0001
0000
0000
0000
,  // measure 35
0200
0000
0000
0300
,  // measure 36
0100
0000
0000
0000
,  // measure 37
0020
0000
0030
0002
,  // measure 38
0000
0003
2000
0000
,  // measure 39
3000
0000
1000
0000
,  // measure 40
0000
0000
0020
0000
,  // measure 41
0030
0200
0000
0300
,  // measure 42
0002
0000
0003
0000
,  // measure 43
0001
0000
0000
0000
,  // measure 44
0002
0000
0000
0003
,  // measure 45
0001
0000
0000
0000
,  // measure 46
0200
0000
0000
0300
,  // measure 47
0100
0000
0000
0000
,  // measure 48
2000
0000
0000
3000
,  // measure 49
1000
0000
0000
0000
,  // measure 50
0020
0000
0000
0030
,  // measure 51
0010
0000
0000
0000
,  // measure 52
0010
0010
0010
0000
;

//---------------dance-single - Chewi----------------
#NOTES:
     dance-single:
     Chewi:
     Easy:
     5:
     0.185,0.200,0.043,0.137,0.000: // measure 1
0000
0000
0000
0000
,  // measure 2
0000
0000
0000
0000
,  // measure 3
0000
0000
0000
0000
,  // measure 4
0000
0000
0000
0000
,  // measure 5
1000
0100
0001
0000
,  // measure 6
0100
0100
0100
0000
,  // measure 7
1000
0010
0001
0000
,  // measure 8
0110
0000
0000
0000
,  // measure 9
0001
1000
0001
0000
,  // measure 10
1000
0100
1000
0000
,  // measure 11
1000
0001
1000
0000
,  // measure 12
0001
0100
0001
0000
,  // measure 13
0100
0010
0100
0000
,  // measure 14
0010
1000
0010
0000
,  // measure 15
1000
0100
0010
0000
,  // measure 16
0001
0010
0001
0000
,  // measure 17
0000
0001
0000
0000
0001
0000
0000
0000
,  // measure 18
0000
1000
0000
0000
1000
0000
0000
0000
,  // measure 19
0000
0010
0000
0000
0010
0000
0000
0000
,  // measure 20
0010
0010
0010
0010
,  // measure 21
1000
1000
1000
0000
,  // measure 22
0100
0010
0001
0000
,  // measure 23
0001
0001
0001
0000
,  // measure 24
0100
0010
1000
0000
,  // measure 25
1001
0000
0110
0000
,  // measure 26
1001
0000
0000
0110
,  // measure 27
0100
0010
0100
0000
,  // measure 28
1000
1000
1000
0000
,  // measure 29
2000
0000
3002
0000
,  // measure 30
0103
0010
0100
0000
,  // measure 31
0020
0000
0230
0000
,  // measure 32
0301
0100
0001
0000
,  // measure 33
2000
0000
3200
0000
,  // measure 34
1300
0100
1000
0000
,  // measure 35
0200
0000
0320
0000
,  // measure 36
0130
0010
0100
0000
,  // measure 37
0000
0010
0000
0000
0010
0000
0000
0001
,  // measure 38
0000
0000
0001
0000
0000
1000
0000
0000
,  // measure 39
1000
0000
1000
1000
,  // measure 40
1000
0000
1000
0000
0000
0010
0000
0000
,  // measure 41
0010
0000
0000
0100
0000
0000
0100
0000
,  // measure 42
0000
0001
0000
0000
0001
0000
0000
0000
,  // measure 43
0100
0100
0100
0100
,  // measure 44
0002
0000
2003
0000
,  // measure 45
3010
0100
0010
0000
,  // measure 46
0200
0000
0320
0000
,  // measure 47
1030
0010
1000
0000
,  // measure 48
0002
0000
0023
0000
,  // measure 49
0031
0010
0001
0000
,  // measure 50
0020
0000
0230
0000
,  // measure 51
0310
0100
0010
0000
,  // measure 52
0001
0100
1000
0100
;

//---------------dance-single - Chewi----------------
#NOTES:
     dance-single:
     Chewi:
     Medium:
     7:
     0.241,0.244,0.017,0.103,0.013: // measure 1
0000
0000
0000
0000
,  // measure 2
0000
0000
0000
0000
,  // measure 3
0000
0000
0000
0000
,  // measure 4
0000
0000
0000
0000
,  // measure 5
0010
0000
0000
0010
0000
0000
0010
0000
0000
0000
0000
0000
0000
0000
0000
0000
,  // measure 6
0100
0000
0000
0100
0000
0000
0100
0000
0000
0000
0000
0000
0000
0000
0000
0000
,  // measure 7
1000
0000
0000
1000
0000
0000
1000
0000
0000
0000
0000
0000
0000
0000
0000
0000
,  // measure 8
1001
0000
0000
0000
,  // measure 9
0001
0000
0010
0000
0100
1000
0100
0000
,  // measure 10
1000
0001
1000
0000
,  // measure 11
1000
0000
0010
0000
0100
0001
0100
0000
,  // measure 12
0010
1000
0001
0000
,  // measure 13
1000
0000
0100
0000
0010
0100
1000
0000
,  // measure 14
0010
0100
0001
0000
,  // measure 15
0100
0000
0001
0000
0010
0100
1000
0000
,  // measure 16
0010
0100
0010
0000
,  // measure 17
0000
1000
0001
0000
1000
0001
0000
0000
,  // measure 18
0000
0001
1000
0000
0001
1000
0000
0000
,  // measure 19
0000
0010
0100
0000
0010
0100
0000
0000
,  // measure 20
0010
1000
0100
0001
,  // measure 21
0010
0000
0100
0000
0010
0001
0100
0000
,  // measure 22
0010
1000
0100
0000
,  // measure 23
1000
0000
0100
0000
0010
0100
1000
0000
,  // measure 24
0010
0100
0001
0000
,  // measure 25
0100
0000
0010
0000
1000
0001
1000
0000
,  // measure 26
1001
0000
0000
0000
0000
1000
0001
0000
,  // measure 27
1000
0000
0100
0000
0010
0001
0010
0000
,  // measure 28
0100
1000
0001
0000
,  // measure 29
2000
0010
0002
3000
,  // measure 30
0100
1000
0020
0033
,  // measure 31
0001
0010
0100
1000
,  // measure 32
1000
0010
0100
0001
,  // measure 33
0002
0010
0200
0003
,  // measure 34
0010
0001
0002
0303
,  // measure 35
0001
0010
0100
1000
,  // measure 36
1000
0010
0100
0001
,  // measure 37
1000
0001
0000
0000
1000
0001
0000
0001
,  // measure 38
1000
0000
0001
1000
0000
0010
0100
0000
,  // measure 39
0010
0100
0000
0000
0010
0000
0100
0000
,  // measure 40
0001
0000
1000
0000
0000
1000
0100
0000
,  // measure 41
1000
0100
0000
0010
0001
0000
0010
0001
,  // measure 42
0000
0001
0100
0000
0001
0100
0000
0000
,  // measure 43
0100
0010
1000
0001
,  // measure 44
0002
0100
2000
0003
,  // measure 45
0010
0001
0200
3300
,  // measure 46
1000
0100
0010
0001
,  // measure 47
0001
0100
0010
1000
,  // measure 48
2000
0100
0020
3000
,  // measure 49
0100
1000
2000
3030
,  // measure 50
1000
0100
0010
0001
,  // measure 51
0001
0100
0010
1000
,  // measure 52
0001
0000
1000
0000
0001
1000
0001
0000
;

//---------------dance-single - Chewi----------------
#NOTES:
     dance-single:
     Chewi:
     Hard:
     10:
     0.375,0.377,0.094,0.000,0.163: // measure 1
0000
0000
0000
0000
,  // measure 2
0000
0000
0000
0000
,  // measure 3
0000
0000
0000
0000
,  // measure 4
0000
0000
0000
0000
,  // measure 5
1000
0000
0000
0100
0000
0000
1000
0000
0000
0000
0100
0000
0100
0000
0000
0000
,  // measure 6
0001
0000
0000
0100
0000
0000
0001
0000
0000
0000
0100
0000
0100
0000
0000
0000
,  // measure 7
0001
0000
0000
1000
0000
0000
0010
0000
0000
0000
0100
0000
0010
0000
0000
0000
,  // measure 8
1001
0000
0000
0000
,  // measure 9
1000
0100
0010
0100
1000
0100
1000
0000
,  // measure 10
0001
0100
0010
1000
1001
0000
0000
0000
,  // measure 11
1000
0010
0100
0001
0010
0100
0010
0000
,  // measure 12
0001
0010
0100
1000
1100
0000
0000
0000
,  // measure 13
1000
0001
0100
0010
1000
0001
0010
0000
,  // measure 14
0001
0010
0100
1000
1100
0000
0000
0000
,  // measure 15
1000
0001
0100
0010
1000
0001
0010
0000
,  // measure 16
0001
0010
0100
1000
1010
0000
0000
0000
,  // measure 17
0000
0000
1000
0001
1000
0000
0000
0000
0001
1000
0001
0000
0000
0000
0000
0000
,  // measure 18
0000
0000
0100
0010
0100
0000
0000
0000
0010
0100
0010
0000
0000
0000
0000
0000
,  // measure 19
0000
0000
0010
1000
0010
0000
0000
0000
0100
0001
0100
0000
0000
0000
0000
0000
,  // measure 20
0001
0000
0000
0001
0100
0000
0000
0100
0010
0000
0000
0010
1000
0000
0000
0000
,  // measure 21
1000
0001
0100
0010
1000
1000
1000
0000
,  // measure 22
0001
0010
0100
1000
1100
0000
0000
0000
,  // measure 23
1000
0100
0010
0000
0001
0100
0010
0000
,  // measure 24
0010
0100
0001
1000
0100
0000
0000
0000
,  // measure 25
1000
0100
0001
0000
0010
1000
0100
0000
,  // measure 26
0110
0000
0000
0000
0000
0100
0100
0000
,  // measure 27
0010
0100
1000
0010
0100
0001
0100
0000
,  // measure 28
0010
0100
0001
0000
0010
0100
1000
0001
,  // measure 29
1000
0100
0010
0001
0101
0000
0000
0000
,  // measure 30
0010
1000
0100
0010
0010
0000
0000
0000
,  // measure 31
0100
0000
0010
0000
0001
0000
1000
0000
0010
1000
0010
0000
0000
0000
0000
0000
,  // measure 32
1000
0000
0010
0000
0100
0000
0001
0000
0010
0001
0010
0000
0100
0000
1000
0000
,  // measure 33
0010
1000
0100
0010
0011
0000
0000
0000
,  // measure 34
0001
1000
0010
0100
0001
0000
0000
0000
,  // measure 35
0100
0000
0010
0000
1000
0000
0001
0000
0010
0001
0010
0000
0000
0000
0000
0000
,  // measure 36
0001
0000
0010
0000
0100
0000
1000
0000
1000
0010
0100
0000
0001
0000
0001
0000
,  // measure 37
0000
0000
0001
1000
0001
0000
0000
0000
1000
0100
1000
0000
0000
0000
1000
0100
,  // measure 38
0010
0000
0000
0000
0001
0010
0001
0000
0000
0000
0001
0100
0010
0000
0000
0000
,  // measure 39
1000
0010
1000
0000
0000
0000
0000
0000
1000
0000
0000
1000
0010
0000
0000
0010
,  // measure 40
0100
0000
0000
0100
0001
0000
0000
0000
0000
0000
0001
0010
0100
0000
0000
0000
,  // measure 41
1000
0100
1000
0000
0000
0000
1000
0100
0010
0000
0000
0000
0001
0010
0001
0000
,  // measure 42
0000
0000
0001
0100
0010
0000
0000
0000
1000
0010
1000
0000
0000
0000
0000
0000
,  // measure 43
1000
0000
0000
1000
0010
0000
0000
0010
0100
0000
0000
0100
0001
0000
1000
0000
,  // measure 44
0001
0010
0100
1000
1010
0000
0000
0000
,  // measure 45
0100
0001
0010
0100
0100
0000
0000
0000
,  // measure 46
0010
0000
0100
0000
1000
0000
0001
0000
0100
0001
0100
0000
0000
0000
0000
0000
,  // measure 47
0001
0000
0100
0000
0010
0000
1000
0000
0100
1000
0100
0000
0010
0000
0001
0000
,  // measure 48
0100
0001
0010
0100
1100
0000
0000
0000
,  // measure 49
1000
0001
0100
0010
1000
0000
0000
0000
,  // measure 50
0010
0000
0100
0000
0001
0000
1000
0000
0100
1000
0100
0000
0000
0000
0000
0000
,  // measure 51
1000
0000
0100
0000
0010
0000
0001
0000
0001
0100
0010
0000
1000
0000
1000
0000
,  // measure 52
0010
0000
0001
0000
0100
1000
0010
0000
;
