#TITLE:I'M TASTY;
#SUBTITLE:;
#ARTIST:PINK DOLLAZ;
#TITLETRANSLIT:;
#SUBTITLETRANSLIT:;
#ARTISTTRANSLIT:;
#CREDIT:Chewi☆;
#BANNER:I'M TASTY-jacket.png;
#BACKGROUND:I'M TASTY-bg.png;
#LYRICSPATH:;
#CDTITLE:;
#MUSIC:I'M TASTY.mp3;
#OFFSET:-0.740;
#SAMPLESTART:28.812;
#SAMPLELENGTH:15.000;
#SELECTABLE:YES;
#DISPLAYBPM:102.000;
#BPMS:0.000=102.000;
#STOPS:;
#BGCHANGES:;

//---------------dance-single - Chewi----------------
#NOTES:
     dance-single:
     Chewi:
     Easy:
     5:
     0.264,0.290,0.184,0.000,0.000:
0000
0000
0000
0000
,
0000
0000
0000
0000
,
0000
0000
0000
0000
,
0000
0000
0000
0000
,
1000
0000
1000
0000
1000
1000
1000
0000
,
0001
0000
0001
0000
0001
0001
0001
0000
,
0100
0000
0100
0000
0100
0100
0100
0000
,
0010
0000
0010
0000
0010
0010
0010
0000
,
0010
1000
0010
1010
,
0100
0001
0100
0101
,
0010
0001
0010
0011
,
0100
1000
0100
1100
,
0000
1000
0000
1000
0000
0001
0000
0001
,
0000
0110
0000
0100
0000
0010
0000
0010
,
0000
1000
0000
1000
0000
0001
0000
0001
,
0000
1001
0000
1000
0000
0001
0000
0001
,
0001
0000
1000
0000
0001
1000
0001
0000
,
1000
0010
0100
0001
,
0100
0000
0001
0000
0100
0001
0100
0000
,
0010
0100
0001
1000
,
0100
0000
0100
0000
0100
0010
0100
0000
,
0010
0000
0010
0000
0010
0100
0010
0000
,
0001
0000
0010
0000
0100
1000
0100
0000
,
1000
0000
0010
0000
1000
0010
1000
0000
,
0010
0000
0010
0000
0100
0001
0100
0000
,
0010
0000
0010
0000
0100
1000
0100
0000
,
1000
1100
0001
0101
,
1000
1100
0101
1100
,
1000
0000
1000
0000
1000
1000
1000
0000
,
0001
0000
0001
0000
0001
0001
0001
0000
,
0100
0000
0100
0000
0100
0100
0100
0000
,
0010
0000
0010
0000
0010
0010
0010
0000
,
0010
1000
0010
1010
,
0100
0001
0100
0101
,
0010
0001
0010
0011
,
0100
1000
0100
1100
,
1001
0000
0000
0000
;

//---------------dance-single - Chewi----------------
#NOTES:
     dance-single:
     Chewi:
     Medium:
     7:
     0.383,0.416,0.414,0.000,0.144:
0000
0000
0000
0000
,
0000
0000
0000
0000
,
0000
0000
0000
0000
,
0000
0000
0000
0000
,
1000
0000
0000
1000
0000
0000
1000
0000
0000
0000
1000
0000
1100
0000
0000
0000
,
0001
0000
0000
0001
0000
0000
0001
0000
0000
0000
0001
0000
0101
0000
0000
0000
,
0100
0000
0000
0100
0000
0000
0100
0000
0000
0000
0100
0000
0110
0000
0000
0000
,
0010
0000
0000
0010
0000
0000
0010
0000
0000
0000
0010
0000
0110
0000
0000
0000
,
0010
0000
0000
1000
0000
0000
0010
0000
0000
0000
1000
0000
1001
0000
0000
0000
,
0010
0000
0000
0001
0000
0000
0010
0000
0000
0000
0001
0000
1001
0000
0000
0000
,
1000
0000
0000
0100
0000
0000
1000
0000
0000
0000
0001
0000
1001
0000
0000
0000
,
0001
0000
0000
0100
0000
0000
0001
0000
0000
0000
1000
0000
1001
0000
0000
0000
,
1000
0100
1000
0100
0010
0100
0010
0100
,
1000
0100
1000
0100
0010
0100
0010
0100
,
0010
0001
0010
0001
0100
0001
0100
0001
,
0010
0001
0010
0001
0100
0001
0100
0001
,
0100
0000
0000
0010
0000
0000
1010
0000
0000
0000
1100
0000
1010
0000
0000
0000
,
1000
0000
0000
0100
0000
0000
0010
0000
0000
0000
0011
0000
0101
0000
0000
0000
,
0001
0000
0000
0010
0000
0000
0100
0000
0000
0000
1100
0000
1010
0000
0000
0000
,
1000
0000
0000
0001
0000
0000
0100
0000
0000
0000
0110
0000
0101
0000
0000
0000
,
0001
0100
0000
0001
0100
0010
1000
0000
,
1000
0100
0010
0100
1000
0010
1000
0000
,
0010
0100
0001
0010
0100
1000
0010
0000
,
1000
0100
0010
0001
1000
0100
1100
0000
,
0001
0010
0100
1000
0001
0100
0010
0000
,
0100
0010
0100
0001
0010
0100
1000
0000
,
0010
1000
0100
0010
0100
1000
0010
0000
,
0100
0001
0010
0100
1000
0001
0010
0001
,
0011
0000
0000
0010
0000
0000
0010
0000
0000
0000
0001
0000
1001
0000
0000
0000
,
1010
0000
0000
0010
0000
0000
0010
0000
0000
0000
1000
0000
1001
0000
0000
0000
,
1001
0000
0000
0100
0000
0000
1001
0000
0000
0000
0010
0000
0011
0000
0000
0000
,
0011
0000
0000
0100
0000
0000
0011
0000
0001
0010
0100
1000
0100
0000
0000
0000
,
1100
0000
0000
0100
0000
0000
0100
0000
0000
0000
1000
0000
1001
0000
0000
0000
,
0101
0000
0000
0100
0000
0000
0100
0000
0000
0000
0001
0000
1001
0000
0000
0000
,
1001
0000
0000
0010
0000
0000
1001
0000
0000
0000
0100
0000
1100
0000
0000
0000
,
1100
0000
0000
0010
0000
0000
1100
0000
1000
0100
0010
0001
0010
0000
0100
0000
,
0010
0000
0000
0010
0000
0000
0000
0000
0000
0000
0000
0000
0000
0000
0000
0000
;

//---------------dance-single - Chewi----------------
#NOTES:
     dance-single:
     Chewi:
     Hard:
     9:
     0.491,0.665,0.644,0.000,0.402: // measure 1
0000
0000
0000
0000
,  // measure 2
0000
0000
0000
0000
,  // measure 3
0000
0000
0000
0000
,  // measure 4
0000
0000
0000
0000
,  // measure 5
1000
0000
0000
1000
0000
0000
1000
0000
0000
0000
1000
0000
1100
0000
0000
0000
,  // measure 6
0001
0000
0000
0001
0000
0000
0001
0000
0000
0000
0001
0000
0101
0000
0000
0000
,  // measure 7
0100
0000
0000
0100
0000
0000
0100
0000
0000
0000
0100
0000
0110
0000
0000
0000
,  // measure 8
0010
0000
0000
0010
0000
0000
0010
0000
0000
0000
0010
0000
0110
0000
0000
0000
,  // measure 9
0010
0000
0000
1000
0000
0000
0010
0000
0000
0000
1000
0000
1001
0000
0000
0000
,  // measure 10
0010
0000
0000
0001
0000
0000
0010
0000
0000
0000
0001
0000
1001
0000
0000
0000
,  // measure 11
1000
0000
0000
0100
0000
0000
1000
0000
0000
0000
0001
0000
1001
0000
0000
0000
,  // measure 12
0001
0000
0000
0100
0000
0000
0001
0000
0000
0000
1000
0000
1001
0000
0000
0000
,  // measure 13
1000
0100
1000
0100
0010
0100
0010
0100
,  // measure 14
1000
0100
1000
0100
0010
0100
0010
0100
,  // measure 15
0010
0001
0010
0001
0100
0001
0100
0001
,  // measure 16
0010
0001
0010
0001
0100
0001
0100
0001
,  // measure 17
0100
0000
0000
0010
0000
0000
1010
0000
0000
0000
1100
0000
1010
0000
0000
0000
,  // measure 18
1000
0000
0000
0100
0000
0000
0010
0000
0000
0000
0011
0000
0101
0000
0000
0000
,  // measure 19
0001
0000
0000
0010
0000
0000
0100
0000
0000
0000
1100
0000
1010
0000
0000
0000
,  // measure 20
1000
0000
0000
0001
0000
0000
0100
0000
0000
0000
0110
0000
0101
0000
0000
0000
,  // measure 21
0101
0000
0011
0000
0000
0000
0001
0010
0100
1000
0010
0000
1000
1000
0000
0000
,  // measure 22
0010
1000
0100
1000
0010
0000
0100
0001
0010
0001
0100
0000
0010
0010
0000
0000
,  // measure 23
0100
0010
1000
0010
0100
0010
1000
0100
0010
0100
1000
0010
1000
0100
0010
0001
,  // measure 24
0100
0010
0100
0001
0010
0100
1000
0001
1000
0100
1000
0100
1000
0000
1000
0100
,  // measure 25
1000
0100
0010
0001
0010
0001
1000
0100
0010
0001
1000
0100
0010
0000
0000
0000
,  // measure 26
0001
1000
0100
1000
0001
1000
1000
0010
0100
0001
1000
0001
0010
0001
0100
0000
,  // measure 27
0001
1000
0100
0000
0000
0000
1000
0010
1000
0100
1000
0010
1000
0000
0000
0000
,  // measure 28
0100
0010
0100
1000
0010
1000
0100
0010
0001
0100
0010
0100
0001
0010
0001
0000
,  // measure 29
0011
0000
0000
1100
0000
0000
0011
0000
0000
0000
0001
0000
1001
0000
0000
0000
,  // measure 30
1010
0000
0000
0101
0000
0000
1010
0000
0000
0000
0101
0000
0101
0000
0000
0000
,  // measure 31
1001
0000
0000
1100
0000
0000
1001
0000
0000
0000
0010
0000
0011
0000
0000
0000
,  // measure 32
0110
0000
0000
0110
0000
0000
0110
0000
0010
0001
0010
0001
0010
0000
0000
0000
,  // measure 33
0011
0000
0000
1100
0000
0000
0011
0000
0000
0000
1001
0000
1010
0000
0000
0000
,  // measure 34
1001
0000
0000
0011
0000
0000
1001
0000
0000
0000
1100
0000
0101
0000
0000
0000
,  // measure 35
1001
0000
0000
0110
0000
0000
1001
0000
0000
0000
1010
0000
0101
0000
0000
0000
,  // measure 36
1001
0000
0000
0110
0000
0000
1001
0000
0000
0000
0011
0000
1100
0000
1001
0000
,  // measure 37
0100
0000
0000
0100
0000
0000
0000
0000
0000
0000
0000
0000
0000
0000
0000
0000
;
