#MENUCOLOR:;
#METERTYPE:DDR X;
#TITLE:I my me mine;
#SUBTITLE:;
#ARTIST:POLYSICS;
#TITLETRANSLIT:;
#SUBTITLETRANSLIT:;
#ARTISTTRANSLIT:;
#CREDIT:Chewi☆;
#BANNER:I my me mine.png;
#BACKGROUND:I my me mine-bg.png;
#LYRICSPATH:;
#CDTITLE:;
#MUSIC:I my me mine.mp3;
#OFFSET:-0.037;
#SAMPLESTART:51.762;
#SAMPLELENGTH:15.000;
#SELECTABLE:YES;
#DISPLAYBPM:58.000:573.000;
#BPMS:0.000=167.000,208.000=152.000,214.000=147.000,224.000=143.000,230.000=141.000,231.000=128.000,232.000=105.000,233.000=87.500,235.000=84.000,236.000=69.000,239.000=58.681,240.000=65.000,246.000=573.000;
#STOPS:;
#BGCHANGES:;

//---------------dance-single - Chewi----------------
#NOTES:
     dance-single:
     Chewi:
     Beginner:
     3:
     0.218,0.285,0.113,0.031,0.000:
0000
0000
0000
0000
,
0000
0000
0000
0000
,
0000
0000
0000
0000
,
0000
0000
0000
0000
,
2000
0000
0000
0000
,
0000
0000
0000
3000
,
0002
0000
0000
0000
,
0000
0000
0000
0003
,
1001
0000
0000
0000
,
1000
1000
1000
0000
,
1001
0000
0000
0000
,
0001
0001
0001
0000
,
0110
0000
0000
0000
,
0010
0010
0010
0000
,
0110
0000
0000
0000
,
0100
0100
0100
0000
,
1000
0000
1000
0000
,
0001
0000
0001
0000
,
0100
0000
0100
0000
,
0010
0000
0010
0000
,
1000
0000
1000
0000
,
0001
0000
0001
0000
,
0010
0000
0010
0000
,
0100
0000
0100
0000
,
0110
0000
0100
0000
,
0100
0000
0100
0100
,
0001
0000
0001
0000
,
0001
0000
0001
0001
,
1000
0000
0001
0000
,
1000
0000
0001
0000
,
0010
0010
0010
0000
,
0100
0100
0100
0000
,
1000
0000
0001
0000
,
1000
0000
0001
0000
,
0010
0000
0100
0000
,
0020
0000
0000
0030
,
0010
0010
0010
0010
,
0010
0010
0010
0010
,
0100
0100
0100
0100
,
0100
0100
0100
0000
,
1000
1000
1000
1000
,
1000
1000
1000
1000
,
0001
0001
0001
0001
,
0001
0001
0001
0000
,
0100
0100
0100
0100
,
0100
0100
0100
0100
,
0010
0010
0010
0010
,
0010
0010
0010
0000
,
1000
1000
1000
1000
,
1000
1000
1000
1000
,
0001
0001
0001
0001
,
0001
0001
0001
0000
,
1001
0000
0000
0000
,
1000
0000
1000
0000
,
1001
0000
0000
0000
,
0001
0000
0001
0000
,
0110
0000
0000
0000
,
0010
0000
0010
0000
,
0110
0000
0000
0000
,
0110
0000
0000
0000
,
1001
0000
0000
0000
,
0000
0000
0100
0000
;

//---------------dance-single - Chewi----------------
#NOTES:
     dance-single:
     Chewi:
     Easy:
     6:
     0.318,0.380,0.154,0.299,0.000:
0000
0000
0000
0000
,
0000
0000
0000
0000
,
0000
0000
0000
0000
,
0000
0000
0000
0000
,
1000
1000
1000
1000
,
1000
1000
1000
1000
,
0001
0001
0001
0001
,
0001
0001
0001
0001
,
0010
0001
0100
0000
,
0010
1000
0100
0100
,
0100
1000
0010
0000
,
0100
0001
0010
0010
,
0100
0010
0001
0000
,
0001
0100
1000
0010
,
1000
0100
0010
0000
,
1000
0100
0001
0010
,
0200
0300
0200
0300
,
0200
0300
0100
0100
,
0220
0000
0000
0330
,
2002
0000
0000
3003
,
0002
1003
2000
3001
,
0001
1000
0010
0010
,
2000
3001
0002
1003
,
1000
0001
0100
0000
,
0020
0030
0020
0030
,
0020
0030
0010
0100
,
0200
0300
0200
0300
,
0200
0300
0100
0010
,
1000
1100
0001
0101
,
1000
0001
1000
0001
,
0110
0000
1000
0000
,
1001
0000
0010
0000
,
0010
1000
0100
0001
,
0010
0001
0100
1000
,
0010
0010
0100
0100
,
0220
0000
0000
0330
,
0010
1000
0010
1000
,
0001
0001
0001
0001
,
0100
0001
0100
0001
,
1000
1000
1000
1000
,
0001
0010
0100
1000
,
0100
0100
0100
0100
,
1000
0100
0010
0001
,
0010
0010
0010
0010
,
0001
1000
0010
0100
,
0001
1000
1001
1001
,
0001
0010
0100
1000
,
0010
0100
0220
0330
,
0010
0100
0001
1000
,
0100
0010
0110
0110
,
0010
0001
0100
1000
,
0001
1000
2002
3003
,
2002
0000
0000
0000
,
0000
0000
0000
3000
,
0200
0000
0000
0000
,
0000
0000
0000
0003
,
0020
0000
0000
0000
,
0000
0000
0000
0300
,
2000
0030
0100
0001
,
0002
0000
0000
3003
,
0110
0000
0000
0000
,
0000
0000
0010
0000
;

//---------------dance-single - Chewi----------------
#NOTES:
     dance-single:
     Chewi:
     Medium:
     7:
     0.368,0.411,0.257,0.082,0.000:
0000
0000
0000
0000
,
0000
0000
0000
0000
,
0000
0000
0000
0000
,
0000
0000
0000
0000
,
1000
0000
1000
0000
,
0001
0000
1000
0000
0001
0001
0001
0000
,
0001
0000
0001
0000
,
0001
0000
0000
0000
1000
0001
1000
0000
,
0010
0100
0001
0100
,
0010
0000
1000
0000
0001
1000
0001
0000
,
1000
0100
0010
0001
,
1000
0000
0010
0000
0100
0001
0100
0000
,
0010
0100
0001
0010
,
0100
0000
1000
0000
0010
0010
0010
0000
,
0010
0100
0010
1000
,
0001
0000
0010
0000
0100
0100
0100
0000
,
0010
0011
0010
1010
,
0010
0011
0010
1010
,
0010
0100
0200
0300
,
0100
0010
0020
0030
,
0010
1000
0001
0010
,
0100
1000
0001
0100
,
0010
0100
0100
0010
,
1000
0010
0010
1000
,
0001
1000
0000
0000
1000
0000
0000
0000
,
1000
0000
1000
1001
,
0001
1000
0000
0000
0001
0000
0000
0000
,
0001
0000
0001
1001
,
1000
1100
0001
0101
,
1000
1010
0001
0011
,
0010
0100
1000
1100
,
0001
0100
0010
0110
,
0200
0000
0310
1000
,
0002
0000
1003
0001
,
0010
0100
1000
0010
,
0100
0100
0100
0000
0200
0000
0300
0000
,
0010
1000
0001
0010
,
0100
1000
0100
0000
0001
0000
0100
0000
,
1000
0010
0100
0001
,
0100
1000
0100
0000
1000
0000
0010
0000
,
0001
0000
0010
0000
0100
0010
0001
0000
,
0100
0010
0100
0001
,
1000
0000
0100
0000
1000
0100
0010
0000
,
0001
1000
0200
0310
,
0010
0000
0100
0000
0001
0010
0100
0000
,
1000
0010
0100
0110
,
0010
0000
1000
0000
0001
0010
0100
0000
,
1000
0100
0101
0000
,
0001
0000
0100
0000
0010
1000
0100
0000
,
0010
0100
0011
0000
,
0100
1000
0010
0100
,
0001
0100
0010
0000
1000
0000
0000
0000
,
1001
0000
1000
0000
,
0001
0100
1010
0011
,
1000
0000
0100
0000
,
1000
0100
0011
1100
,
0101
0000
0100
0000
,
0010
0100
0101
1010
,
1001
1000
0001
1000
,
0010
0010
0020
0000
0000
0000
0000
0000
,
0230
0000
0000
0000
,
0000
0300
1001
0000
;

//---------------dance-single - Chewi----------------
#NOTES:
     dance-single:
     Chewi:
     Hard:
     12:
     0.619,0.601,0.535,0.196,0.072:
0000
0000
0000
0000
,
0000
0000
0000
0000
,
0000
0000
0000
0000
,
0000
0000
0000
0000
,
1000
0100
0001
0100
,
1000
0010
0001
0010
,
1000
0100
0001
0100
,
1000
0000
0010
0000
0001
0001
0001
0000
,
0001
0010
0100
1000
0100
0000
1100
0000
,
1000
0000
0100
0000
0010
0000
0001
0000
1000
0000
0001
1000
0001
0000
0000
0000
,
1000
0010
0100
0001
0100
0000
0110
0000
,
0100
0000
0001
0000
0010
0000
0100
0000
1000
0000
0010
1000
0010
0000
0000
0000
,
1000
0001
0010
0100
1000
0000
1001
0000
,
1000
0000
0100
0000
0010
0000
0001
0000
1000
0000
0010
1000
0010
0000
0000
0000
,
1000
0010
0100
0001
0100
0000
0110
0000
,
0100
0000
0001
0000
0010
0000
0100
0000
1000
0010
0000
1000
0100
0000
1000
0000
,
0010
0100
0002
0003
0100
0001
0020
0030
,
0100
1000
0020
0030
1000
0001
1001
0000
,
0100
0100
0010
0100
0020
0000
0031
0000
,
0001
0010
0100
1000
0020
0000
0130
0000
,
0100
0010
1000
0001
0010
0100
1000
0001
,
0100
0000
0010
0000
1000
0000
0001
0000
0010
0000
0100
0010
0100
0000
0000
0000
,
0010
0001
0010
0100
1000
0000
1001
0000
,
1000
0000
0100
0000
0010
0000
0001
0000
1000
0010
1000
0000
0001
0000
0100
0000
,
0010
0020
0030
1000
0001
0002
0003
1000
,
0100
0200
0300
1000
0100
0010
0002
0003
,
0010
0200
0300
0010
0001
0002
0003
0001
,
0100
0000
0010
0000
1000
0000
0001
0000
1000
0100
1000
0000
0001
0100
0001
0000
,
0010
0100
1000
0001
0010
0100
1000
0010
,
0100
0001
0010
0100
1000
0001
1001
0000
,
1010
0100
0001
0010
0100
0000
1001
0000
,
1000
0000
0100
0000
0010
0000
0001
0000
0010
0000
0100
1000
0100
0000
0000
0000
,
1001
0010
0100
1000
0010
0100
0001
0100
,
0010
1000
0001
0010
0100
1000
0010
0100
,
0001
0001
0100
0100
0010
0010
1000
1000
,
0001
0000
1000
0000
0100
0000
0010
0100
0010
0000
0000
0000
0000
0000
0000
0000
,
1100
0000
0011
0000
1000
0100
0010
0001
,
0100
0010
1000
0000
1010
0000
0101
0000
,
1001
0000
0011
0000
0001
0010
0100
1000
,
0010
0100
0001
0000
0202
0000
0303
0000
,
1010
0000
1001
0000
0001
0010
0100
1000
,
0100
0010
0001
0000
1100
0000
0101
0000
,
0110
0000
1010
0000
1000
0001
0010
0100
,
1000
0000
0001
1000
0001
0000
1000
0000
0202
0000
0000
0000
0303
0000
0000
0000
,
0101
0000
0110
0000
0010
1000
0001
0010
,
0100
1000
0100
0000
0011
0000
1100
0000
,
1001
0000
1010
0000
1000
0010
0001
0010
,
1000
0100
0001
0000
0202
0000
0303
0000
,
0101
0000
0011
0000
0001
0010
0100
1000
,
0100
0010
0001
0000
1001
0000
1010
0000
,
0101
0000
1010
0000
1000
0010
0001
0010
,
1000
0100
0010
0000
0010
0000
0001
0000
0010
0000
0100
1000
0100
0000
0000
0000
,
1010
0000
0101
0000
0100
0010
1000
0001
,
0010
0100
1000
0000
1100
0000
0011
0000
,
1010
0000
0101
0000
0100
0010
1000
0001
,
0010
0100
0100
0000
0110
0000
0000
0000
,
0011
0000
1100
0000
0001
0100
1000
0010
,
0001
0010
1000
0000
0100
0000
0011
0000
,
0101
0000
1001
0000
1010
0101
0001
0010
,
1000
0100
0002
0000
0000
0000
0000
0000
,
2003
0000
0000
0000
,
0000
3000
0110
0000
;

//---------------dance-double - Chewi----------------
#NOTES:
     dance-double:
     Chewi:
     Hard:
     12:
     0.596,0.570,0.504,0.021,0.067: // measure 1
00000000
00000000
00000000
00000000
,  // measure 2
00000000
00000000
00000000
00000000
,  // measure 3
00000000
00000000
00000000
00000000
,  // measure 4
00000000
00000000
00000000
00000000
,  // measure 5
10000000
01000000
00000000
00010000
01000000
00100000
00000000
00100000
,  // measure 6
01000000
00100000
00000000
10000000
00010000
10000000
00010000
00000000
,  // measure 7
00010000
00100000
00000000
00010000
00001000
00010000
00000000
00010000
,  // measure 8
00000100
00001000
00000010
00000000
00000001
00001000
00000001
00000000
,  // measure 9
00000001
00000100
00000010
00001000
00000001
00000000
00001001
00000000
,  // measure 10
00000001
00000000
00000010
00000000
00000100
00000000
00001000
00000000
00000010
00000000
00001000
00000010
00001000
00000000
00000000
00000000
,  // measure 11
00000010
00001000
00000100
00010000
00001000
00000000
00011000
00000000
,  // measure 12
00001000
00000000
00010000
00000000
01000000
00000000
10000000
00000000
00100000
00000000
10000000
00100000
10000000
00000000
00000000
00000000
,  // measure 13
10000000
01000000
00100000
00010000
00100000
00000000
11000000
00000000
,  // measure 14
00100000
00000000
00010000
00000000
01000000
00000000
00100000
00000000
01000000
00000000
00010000
01000000
00010000
00000000
00000000
00000000
,  // measure 15
00010000
00100000
00001000
00010000
00000100
00000000
00001001
00000000
,  // measure 16
00000100
00000000
00000010
00000000
00001000
00000000
00000001
00000000
00000001
00000010
00000001
00000000
00001000
00000010
00000100
00000000
,  // measure 17
00001000
00000001
00000010
00000000
00001000
00000001
00000010
00000000
,  // measure 18
00000100
00001000
00000010
00001000
00000100
00010000
00001000
00000000
,  // measure 19
00001000
00010000
01000000
10000000
00100000
00000000
10100000
00000000
,  // measure 20
10000000
00000000
00100000
00000000
01000000
00000000
00010000
00000000
00100000
00000000
01000000
00100000
01000000
00000000
00000000
00000000
,  // measure 21
00100000
00010000
01000000
00100000
10000000
01000000
00100000
00010000
,  // measure 22
01000000
00000000
00100000
00000000
01000000
00000000
00010000
00000000
00100000
00000000
00001000
00100000
00001000
00000000
00000000
00000000
,  // measure 23
00010000
00001000
00000010
00001000
00000010
00000000
00000110
00000000
,  // measure 24
00000100
00000000
00000001
00000000
00000010
00000000
00000100
00000000
00001000
00000010
00000000
00001000
00000100
00000000
00001000
00000000
,  // measure 25
00000010
00001000
00000100
00000000
00001000
00000010
00001000
00000000
,  // measure 26
00000001
00000100
00000001
00000000
00000100
00000001
00000010
00000000
,  // measure 27
00000001
00000100
00000010
00000000
00001000
00000100
00010000
00000000
,  // measure 28
00001000
00000000
00100000
00000000
00010000
00000000
01000000
00000000
10000000
00100000
10000000
00000000
00110000
00000000
00010000
00000000
,  // measure 29
10000000
00100000
01000000
00010000
00100000
01000000
10000000
00000000
,  // measure 30
00100000
00000000
01000000
00000000
00010000
00000000
00100000
00000000
01000000
00000000
10000000
01000000
10000000
00000000
00000000
00000000
,  // measure 31
10000000
01000000
00100000
00010000
01000000
00000000
01010000
00000000
,  // measure 32
00010000
00000000
00100000
00000000
00001000
00000000
00010000
00000000
00000100
00000000
00001000
00000001
00001000
00000000
00000000
00000000
,  // measure 33
00001000
00000010
00000100
00000001
00000100
00000000
00000110
00000000
,  // measure 34
00000001
00000000
00000100
00000000
00000010
00000000
00001000
00000000
00000001
00000000
00001000
00000001
00001000
00000000
00000000
00000000
,  // measure 35
00001000
00000100
00010000
00001000
00001000
00000000
00011000
00000000
,  // measure 36
00001000
00010000
01000000
10000000
11000000
00000000
00000000
00000000
,  // measure 37
11000000
00000000
01010000
00000000
10000000
00100000
00010000
00100000
,  // measure 38
01000000
10000000
00100000
00000000
01010000
00000000
00110000
00000000
,  // measure 39
11000000
00000000
00110000
00000000
00100000
00010000
00000100
00001000
,  // measure 40
00000001
00000100
00000010
00000000
00001010
00000000
00000000
00000000
,  // measure 41
00001010
00000000
00000101
00000000
00000001
00000100
00000010
00001000
,  // measure 42
00000001
00000010
00000100
00000000
00001100
00000000
00001010
00000000
,  // measure 43
00001001
00000000
00001100
00000000
00000001
00000100
00000010
00001000
,  // measure 44
00000100
00010000
00001000
00000000
00011000
00000000
00000000
00000000
,  // measure 45
00011000
00000000
01010000
00000000
00010000
01000000
00100000
10000000
,  // measure 46
00010000
00100000
01000000
00000000
11000000
00000000
10010000
00000000
,  // measure 47
00110000
00000000
00001100
00000000
00000001
00001000
00000010
00000100
,  // measure 48
00000001
00000100
00000010
00000000
00001010
00000000
00000000
00000000
,  // measure 49
00001010
00000000
00000101
00000000
00000100
00000001
00000010
00000001
,  // measure 50
00000100
00000010
00001000
00000000
00000100
00000000
00001100
00000000
,  // measure 51
00001010
00000000
00010100
00000000
00000100
00010000
01000000
10000000
,  // measure 52
00100000
00010000
00100000
10000000
01000000
01000000
00100000
00100000
,  // measure 53
00110000
00000000
01010000
00000000
00100000
10000000
00010000
00100000
,  // measure 54
01000000
10000000
01000000
00000000
00110000
00000000
11000000
00000000
,  // measure 55
00110000
00000000
00001010
00000000
00001000
00000100
00000010
00000001
,  // measure 56
00001000
00000010
00000100
00000001
00000100
00000000
00000101
00000000
,  // measure 57
00001010
00000000
00000101
00000000
00000001
00000100
00000010
00001000
,  // measure 58
00000100
00010000
00001000
00000000
00100000
00000000
00010000
00000000
,  // measure 59
11000000
00000000
00110000
00000000
01000000
00010000
00100000
00001000
,  // measure 60
00010000
00000100
00000200
00000000
00000000
00000000
00000000
00000000
,  // measure 61
00000320
00000000
00000000
00000000
,  // measure 62
00000000
00000030
00011000
00000000
;

//---------------dance-double - Chewi----------------
#NOTES:
     dance-double:
     Chewi:
     Medium:
     8:
     0.400,0.443,0.360,0.021,0.000: // measure 1
00000000
00000000
00000000
00000000
,  // measure 2
00000000
00000000
00000000
00000000
,  // measure 3
00000000
00000000
00000000
00000000
,  // measure 4
00000000
00000000
00000000
00000000
,  // measure 5
10000000
01000000
00100000
00010000
,  // measure 6
10000000
00000000
00010000
00000000
10000000
00010000
10000000
00000000
,  // measure 7
00010000
00100000
01000000
10000000
,  // measure 8
00100000
00000000
01000000
00000000
00100000
01000000
00100000
00000000
,  // measure 9
01010000
00110000
00101000
00000000
,  // measure 10
00010000
00000000
00001000
00000000
00000010
00000010
00000010
00000000
,  // measure 11
00000101
00001000
00001001
00000000
,  // measure 12
00001000
00000000
00000100
00000000
00010000
00010000
00010000
00000000
,  // measure 13
00001000
00100000
01000000
11000000
,  // measure 14
00100000
01000000
00010000
00000000
01000000
01000000
01000000
00000000
,  // measure 15
00100000
10000000
00010000
00110000
,  // measure 16
00100000
00000000
00001000
00000000
00010000
00000100
00001000
00000000
,  // measure 17
00000001
00001000
00000001
00000000
00001000
00000001
00001000
00000000
,  // measure 18
00000010
00000000
00000100
00000000
00000001
00000001
00000001
00000000
,  // measure 19
00001010
00000101
00001001
00000000
,  // measure 20
00001001
00001100
00011000
00000000
,  // measure 21
00000100
00001000
00010000
01000000
,  // measure 22
10000000
00000000
00100000
00000000
00010000
00100000
10000000
00000000
,  // measure 23
01000000
00100000
00010000
01010000
,  // measure 24
01000000
00100000
10000000
10010000
,  // measure 25
00100000
00010000
00000000
00000000
00001000
00000000
00000000
00000000
,  // measure 26
00010000
00000000
00000000
00000000
00010000
00001000
00000010
00000000
,  // measure 27
00000100
00000000
00000001
00000000
,  // measure 28
00000010
00000000
00000000
00000000
00001000
00000100
00000001
00000000
,  // measure 29
00000100
00001010
00000100
00000011
,  // measure 30
00000100
00010000
01000000
10000000
,  // measure 31
00100000
01000000
00100000
00000000
01000000
00000000
01010000
00000000
,  // measure 32
00100000
01000000
00100000
00000000
01000000
00000000
11000000
00000000
,  // measure 33
10000000
01000000
00000000
00000000
00100000
00000000
00010000
00000000
,  // measure 34
00001000
00000100
00000000
00000000
00000010
00000000
00000001
00000000
,  // measure 35
00000100
00000001
00000100
00000000
00000100
00001000
00000100
00000000
,  // measure 36
00000110
00001001
00000110
00000000
,  // measure 37
00001010
00000000
00001000
00000000
00000100
00010000
00001000
00000000
,  // measure 38
00010000
00000000
00100000
00000000
01000000
01000000
01000000
00000000
,  // measure 39
10100000
01100000
01000000
00010000
,  // measure 40
00100000
01000000
00100000
00000000
01000000
00000000
00000000
00000000
,  // measure 41
00100000
00010000
01000000
00100000
,  // measure 42
10000000
00010000
00100000
00000000
01000000
00000000
00100000
00000000
,  // measure 43
00000100
00000000
00001000
00000000
00000001
00000100
00000010
00000000
,  // measure 44
00001000
00001000
00000010
00000000
00000101
00000000
00000000
00000000
,  // measure 45
00001001
00000000
00000010
00000000
00000100
00001000
00000010
00000000
,  // measure 46
00000100
00000001
00001000
00000100
,  // measure 47
00010000
00000000
00001000
00000000
00100000
10000000
01000000
00000000
,  // measure 48
00010000
00100000
01000000
00000000
,  // measure 49
01000000
00000000
00100000
00000000
00010000
01000000
00100000
00000000
,  // measure 50
10000000
00010000
00100000
00001000
,  // measure 51
00000010
00000000
00000001
00000000
00000100
00001000
00000100
00000000
,  // measure 52
00001000
00000001
00001000
00000000
00001001
00000000
00000000
00000000
,  // measure 53
00001010
00000000
00000100
00000000
,  // measure 54
00000001
00000100
00000010
00000000
00001000
00000000
00000100
00000000
,  // measure 55
00010100
00000000
00010000
00000000
,  // measure 56
00001000
00010000
01000000
00000000
10000000
00000000
00100000
00000000
,  // measure 57
00110000
00000000
00100000
00000000
,  // measure 58
00010000
00100000
01000000
00000000
10000000
00000000
01000000
00000000
,  // measure 59
10010000
00000000
01000000
00100000
,  // measure 60
10100000
01000000
00110000
00000000
00000000
00000000
00000000
00000000
,  // measure 61
00022000
00000000
00000000
00000000
,  // measure 62
00000000
00033000
00001000
00000000
;

//---------------dance-double - Chewi----------------
#NOTES:
     dance-double:
     Chewi:
     Easy:
     6:
     0.340,0.380,0.124,0.257,0.000:
00000000
00000000
00000000
00000000
,
00000000
00000000
00000000
00000000
,
00000000
00000000
00000000
00000000
,
00000000
00000000
00000000
00000000
,
00010000
00010000
00010000
00010000
,
00010000
00010000
00010000
00010000
,
00001000
00001000
00001000
00001000
,
00001000
00001000
00001000
00001000
,
00001000
00000010
00000001
00000000
,
00000001
00000100
00001000
00001000
,
00001000
00000100
00010000
00000000
,
00010000
00100000
10000000
01000000
,
00010000
00100000
01000000
00000000
,
00100000
00010000
00001000
00000010
,
00000001
00000100
00001000
00000010
,
00000100
00000001
00001000
00000001
,
00001000
00000100
00000001
00000100
,
00001000
00000010
00000001
00000010
,
00000220
00000000
00000000
00000330
,
00002002
00000000
00000000
00003003
,
00000001
00000100
00000010
00001000
,
00010000
01000000
10000000
00100000
,
00010000
00100000
01000000
10000000
,
10000000
01000000
00100000
00010000
,
00001000
00000000
00011000
00000000
,
00010000
00000000
00010000
00001000
,
00001001
00000000
00000001
00000000
,
00001001
00000000
00001000
00000000
,
00000010
00001010
00000010
00000011
,
00000010
00000100
00010000
01000000
,
10000000
01000000
00010000
01010000
,
01000000
00100000
10000000
10010000
,
10000000
01000000
00010000
01000000
,
10000000
00100000
00010000
00100000
,
00001000
00010000
00000100
00001000
,
00002002
00000000
00000000
00003003
,
00000002
00002003
00003001
00000100
,
00000010
00001000
00000100
00010000
,
00002000
00023000
01030000
10000000
,
00100000
00010000
00200000
00300000
,
00020000
00230000
00310000
01000000
,
00100000
10000000
00010000
10000000
,
00020000
00230000
00301000
00010000
,
00000001
00001000
00000010
00000100
,
00000002
00000203
00000310
00001000
,
00000001
00000010
00000100
00001000
,
00000200
00000320
00000031
00000100
,
00000010
00001000
00000200
00000300
,
00000200
00020300
00031000
00010000
,
01000000
10000000
00100000
00010000
,
00200000
00320000
00130000
01000000
,
10000000
10000000
00100000
00100000
,
01010000
00000000
00100000
00000000
,
00100000
00010000
00001000
00000010
,
00000001
00000000
00000100
00000000
,
00000001
00000100
00000010
00001000
,
00000000
00000000
00010000
00000000
,
00010000
01000000
00100000
10000000
,
00010000
00000000
10000000
00000000
,
01000000
02000000
00000000
00000000
,
03100000
00000000
00000000
00000000
,
00000000
00000000
00001001
00000000
;
