#TITLE:I Need to Know;
#SUBTITLE:;
#ARTIST:R Angels;
#TITLETRANSLIT:;
#SUBTITLETRANSLIT:;
#ARTISTTRANSLIT:;
#GENRE:Disco Pop;
#CREDIT:chewi;
#BANNER:I Need to Know.png;
#BACKGROUND:I Need to Know-bg.png;
#LYRICSPATH:;
#CDTITLE:cdtitle.png;
#MUSIC:I Need to Know.ogg;
#OFFSET:-0.413000;
#SAMPLESTART:58.026001;
#SAMPLELENGTH:15.000000;
#SELECTABLE:YES;
#BPMS:0.000000=115.000000
;
#STOPS:
;
#BGCHANGES:-0.826=I Need to Know.avi=1.000=1=0=1===CrossFade==,
160.000=I Need to Know-bg.png=1.000=1=0=1===CrossFade==,
99999=-nosongbg-=1.000=0=0=0 // don't automatically add -songbackground-
;
#KEYSOUNDS:;
#ATTACKS:;

//---------------dance-single - ----------------
#NOTES:
     dance-single:
     :
     Beginner:
     1:
     0.070115,0.111546,0.078082,0.000000,0.000000,37.000000,7.000000,0.000000,0.000000,0.000000,0.000000,0.070115,0.111546,0.078082,0.000000,0.000000,37.000000,7.000000,0.000000,0.000000,0.000000,0.000000:
// measure 0
0000
0000
0000
0000
,  // measure 1
0000
0000
0000
0000
,  // measure 2
0000
0000
0000
0000
,  // measure 3
0000
0000
0000
0000
,  // measure 4
1000
0000
0000
0000
,  // measure 5
0001
0000
0000
0000
,  // measure 6
1000
0000
0000
0000
,  // measure 7
0001
0000
0000
0000
,  // measure 8
0110
0000
0000
0000
,  // measure 9
0100
0000
0000
0000
,  // measure 10
0100
0000
0000
0000
,  // measure 11
0100
0000
0000
0000
,  // measure 12
0010
0000
0000
0000
,  // measure 13
0010
0000
0000
0000
,  // measure 14
1000
0000
0000
0000
,  // measure 15
1000
0000
0000
0000
,  // measure 16
0100
0000
0000
0000
,  // measure 17
0100
0000
0000
0000
,  // measure 18
0001
0000
0000
0000
,  // measure 19
0001
0000
0000
0000
,  // measure 20
1001
0000
0000
0000
,  // measure 21
1000
0000
0000
0000
,  // measure 22
0100
0000
0000
0000
,  // measure 23
0001
0000
0000
0000
,  // measure 24
1001
0000
0000
0000
,  // measure 25
0001
0000
0000
0000
,  // measure 26
0010
0000
0000
0000
,  // measure 27
1000
0000
0000
0000
,  // measure 28
0110
0000
0000
0000
,  // measure 29
0100
0000
0000
0000
,  // measure 30
0010
0000
0000
0000
,  // measure 31
0100
0000
0000
0000
,  // measure 32
1001
0000
0000
0000
,  // measure 33
1000
0000
0000
0000
,  // measure 34
0001
0000
0000
0000
,  // measure 35
1000
0000
0000
0000
,  // measure 36
1001
0000
0000
0000
,  // measure 37
1000
0000
0000
0000
,  // measure 38
1001
0000
0000
0000
,  // measure 39
0001
0000
0000
0000
,  // measure 40
0010
0000
0000
0000
;

//---------------dance-single - ----------------
#NOTES:
     dance-single:
     :
     Easy:
     4:
     0.151384,0.178474,0.100392,0.000000,0.000000,86.000000,9.000000,0.000000,0.000000,0.000000,0.000000,0.151384,0.178474,0.100392,0.000000,0.000000,86.000000,9.000000,0.000000,0.000000,0.000000,0.000000:
0000
0000
0000
0000
,
0000
0000
0000
0000
,
0000
0000
0000
0000
,
0000
0000
0000
0000
,
1000
0000
0100
0000
,
1000
0000
0100
0000
,
0001
0000
0100
0000
,
0001
0000
0100
0000
,
1001
0000
1000
0000
,
1000
0000
1000
1000
,
0100
0000
0100
0000
,
0010
0010
0010
0000
,
0110
0000
0100
0000
,
0100
0100
0100
0000
,
1001
0000
1000
0000
,
0001
1000
0001
0000
,
0110
0000
0010
0000
,
0100
0010
0100
0000
,
1001
0000
0001
0000
,
1000
0001
1000
0000
,
0001
0000
0010
0000
,
0100
0000
0001
0000
,
0010
0000
1000
0000
,
0100
0000
0001
0000
,
0010
0000
1000
0000
,
0100
0000
0010
0000
,
1000
0000
0100
0000
,
0001
0001
0001
0000
,
1001
0000
0000
0000
,
1000
0100
0001
0000
,
0001
0100
1000
0000
,
1000
0100
0001
0000
,
1001
0000
0000
0000
,
0001
0010
1000
0000
,
1000
0010
0001
0000
,
0001
0010
1000
0000
,
1001
0000
1000
0000
,
1000
1000
0100
0000
,
1001
0000
0001
0000
,
0001
0001
0100
0000
,
0100
0000
0000
0000
;

//---------------dance-single - ----------------
#NOTES:
     dance-single:
     :
     Medium:
     6:
     0.277272,0.312329,0.133855,0.089237,0.016732,154.000000,12.000000,8.000000,0.000000,0.000000,0.000000,0.277272,0.312329,0.133855,0.089237,0.016732,154.000000,12.000000,8.000000,0.000000,0.000000,0.000000:
0000
0000
0000
0000
,
0000
0000
0000
0000
,
0000
0000
0000
0000
,
0000
0000
0000
0000
,
1000
0100
0010
0100
,
1000
0100
0010
0001
,
0001
0100
0010
0100
,
0001
1000
0100
0010
,
0110
0000
0000
0010
0100
0000
0000
0010
,
0100
0000
0000
0000
0000
0000
0000
0000
0100
0000
0000
0100
0000
0000
0100
0000
,
0100
0000
0000
0100
0010
0000
0000
0100
,
0020
0032
2003
3100
,
1000
0001
1000
0001
,
1000
0000
0100
0000
0010
0100
0010
0000
,
0001
1000
0001
0100
,
0001
0000
1000
0000
0010
1000
0010
0000
,
1000
0010
0100
0001
,
1000
0000
0100
0000
0010
0100
1000
0000
,
0001
0010
0100
0010
,
0001
0000
1000
0000
0100
1000
0001
0000
,
1001
1000
1001
0001
,
0101
1000
0101
1000
,
0001
0000
1000
0000
0100
0100
0100
0000
,
1000
0000
0001
0000
0010
0010
0010
0000
,
1001
1000
1001
0001
,
1010
0010
1010
0010
,
0100
0100
0001
0001
,
0100
0001
0100
0001
0100
0000
0000
0000
,
0002
1000
0010
1003
,
2000
0001
0010
3001
,
1000
1000
0001
0001
,
1000
0100
0010
0001
1000
0000
0000
0000
,
0001
0100
1000
0010
,
0001
0010
1000
0100
,
0001
0010
0100
1000
,
0001
0000
0000
0001
0000
0000
0001
0000
1000
0000
0000
0000
1001
0000
0000
0000
,
0110
0000
0000
0100
0010
0000
0000
0100
,
0010
0000
0000
0000
0000
0000
0000
0000
0100
0000
0000
0100
0000
0000
0100
0000
,
0010
0000
0000
1000
0001
0000
0000
1000
,
0002
2003
3200
0310
,
0110
0000
0000
0000
;

//---------------dance-single - ----------------
#NOTES:
     dance-single:
     :
     Hard:
     9:
     0.363322,0.379257,0.156165,0.133855,0.083660,202.000000,14.000000,12.000000,0.000000,0.000000,0.000000,0.363322,0.379257,0.156165,0.133855,0.083660,202.000000,14.000000,12.000000,0.000000,0.000000,0.000000:
0000
0000
0000
0000
,
0000
0000
0000
0000
,
0000
0000
0000
0000
,
0000
0000
0000
0000
,
1000
0000
0000
1000
0100
0000
0000
0100
0010
0000
0000
0010
0001
0000
0000
0000
,
0001
0000
0000
0001
0010
0000
0000
0010
0100
0000
0000
0100
1000
0000
0000
0000
,
0001
0000
0000
0001
1000
0000
0000
1000
0010
0000
0000
0010
0100
0000
0100
0000
,
0010
0100
0000
0010
0000
0100
0010
0000
,
0110
0000
0000
0010
1000
0000
0000
1000
,
0010
0000
0000
0000
0000
0000
0000
0000
0100
0000
0000
0100
0000
0000
0100
0000
,
0001
0000
0000
1000
0001
0000
0000
1000
,
0100
0010
0001
0010
0100
1000
0001
0000
,
1000
0000
0001
0000
1000
0100
0010
0000
,
0001
0010
0100
1000
0001
1000
0100
0000
,
1000
0000
0001
0000
0100
0010
0100
0000
,
0010
0100
0001
1000
0010
0100
0010
0000
,
1000
0000
0001
0000
1000
0100
0010
0000
,
0001
0010
0100
1000
0010
0100
0001
0000
,
0100
0000
0010
0000
1000
0001
0100
0000
,
0001
1000
0100
0010
0001
0010
0100
0000
,
0110
0110
1001
1001
,
1000
0010
0100
0001
1000
0100
0010
0000
,
0010
0000
0000
0100
0000
0000
0010
0000
0001
0000
1000
0000
0010
0000
0010
0000
,
0100
0000
0000
0010
0000
0000
1000
0000
0001
0000
0100
0000
0001
0000
0100
0000
,
0101
0101
1010
1010
,
1000
0001
0010
0100
0010
0001
1000
0000
,
1100
0000
0000
0010
0000
0000
0100
0000
1000
0000
0001
0000
1000
0000
0010
0000
,
0100
0100
0100
0100
0100
0000
0000
0000
,
0001
1000
0100
0000
1000
0001
0100
0000
,
0010
1000
0001
0000
0010
0001
1000
0000
,
0002
0023
2030
3200
,
0302
0023
0230
2300
,
3001
1000
0100
0000
1000
0001
0100
0000
,
0010
0100
0010
0000
0100
0010
0100
0000
,
0020
2030
3002
0203
,
0301
0000
0000
0001
0000
0000
0001
0000
1000
0000
0000
0000
1001
0000
0000
0000
,
0110
0000
0000
0100
0001
0000
0000
0001
,
0100
0000
0000
0000
0000
0000
0000
0000
0010
0000
0000
0010
0000
0000
0010
0000
,
1000
0000
0000
0001
1000
0000
0000
0100
,
0100
0100
0100
0100
0100
0000
0110
0000
,
1001
0000
0000
0000
;
