#TITLE:I Made It (Jason Nevins Remix);
#SUBTITLE:;
#ARTIST:Cash Money Heroes;
#TITLETRANSLIT:;
#SUBTITLETRANSLIT:;
#ARTISTTRANSLIT:;
#CREDIT:Chewi☆;
#BANNER:I Made It (Jason Nevins Remix).png;
#BACKGROUND:I Made It (Jason Nevins Remix)-bg.png;
#LYRICSPATH:;
#CDTITLE:;
#MUSIC:I Made It (Jason Nevins Remix).mp3;
#OFFSET:-0.081;
#SAMPLESTART:8.430;
#SAMPLELENGTH:15.000;
#SELECTABLE:YES;
#DISPLAYBPM:115.000;
#BPMS:0.000=115.000;
#STOPS:;
#BGCHANGES:;

//---------------dance-single - Chewi----------------
#NOTES:
     dance-single:
     Chewi:
     Hard:
     12:
     0.566,0.585,0.624,0.000,0.266: // measure 1
0000
0000
0000
0000
,  // measure 2
0000
0000
0000
0000
,  // measure 3
0000
0000
0000
0000
,  // measure 4
0000
0000
0000
0000
,  // measure 5
0000
0000
1000
0000
0100
0000
0010
0000
0001
0000
0000
1001
0000
0000
1000
0000
,  // measure 6
0000
0000
1000
0000
0010
0000
0100
0000
0001
0000
0000
0101
0000
0000
1000
0000
,  // measure 7
0000
0000
1000
0000
0100
0000
0010
0000
0001
0000
0000
0011
0000
0000
1001
0000
,  // measure 8
0000
0000
1000
0001
1000
0000
1001
0000
0000
0000
0001
1000
0001
0000
1001
0000
,  // measure 9
0000
0000
1000
0000
0010
0000
0100
0000
0001
0000
0000
0101
0000
0000
1000
0000
,  // measure 10
0000
0000
1000
0000
0100
0000
0010
0000
0001
0000
0000
0011
0000
0000
1000
0000
,  // measure 11
0000
0000
1000
0000
0010
0000
0100
0000
0001
0000
0000
0101
0000
0000
1001
0000
,  // measure 12
0000
0000
1000
0010
1000
0000
1010
0000
0000
0000
0001
0100
0001
0000
0101
0000
,  // measure 13
1000
0000
0100
0000
0011
0000
0000
0000
0001
1000
0100
0000
1000
0000
0000
0000
,  // measure 14
0001
0000
1000
0000
1010
0000
0000
0000
1000
0001
0010
0000
0011
0000
0000
0000
,  // measure 15
0001
0000
1000
0000
0010
0000
0100
0000
0001
0100
0001
0000
0101
0000
0000
0000
,  // measure 16
0001
0000
0010
0000
0100
0000
1000
0000
0010
1000
0010
0000
1010
0000
0000
0000
,  // measure 17
1000
0100
1000
0000
0010
0000
0100
0000
0000
0000
0101
0000
0011
0000
0000
0000
,  // measure 18
0001
0010
0001
0000
0010
0000
0100
0000
0000
0000
1100
0000
1010
0000
0000
0000
,  // measure 19
1000
0001
1000
0000
0010
0000
0100
0000
0000
0000
0101
0000
1010
0000
0000
0000
,  // measure 20
0001
0010
0100
0000
1000
0000
0100
0000
1000
0100
0010
0000
0001
0000
1000
0000
,  // measure 21
0001
0101
1000
1100
0001
1000
0010
0100
,  // measure 22
0001
0011
1000
1010
0100
0010
1000
0001
,  // measure 23
0010
1100
0010
0011
0100
0010
1000
0001
,  // measure 24
1000
0100
1000
0000
0001
0100
0001
0000
1000
0010
1000
0000
0001
0010
0001
0000
,  // measure 25
1000
1100
0001
0101
0010
1000
0001
0010
,  // measure 26
1000
0011
0001
1010
1000
0001
0100
0010
,  // measure 27
0100
0101
1000
1100
0010
0001
0100
0010
,  // measure 28
1000
0100
1000
0000
0010
1000
0010
0000
0100
0001
0100
0000
0010
0001
0010
0000
,  // measure 29
0001
0000
0001
0000
0001
1000
0001
0000
1000
0000
0100
0000
1100
0000
0000
0000
,  // measure 30
1000
0000
1000
0000
1000
0001
1000
0000
0001
0000
0001
0000
0101
0000
0000
0000
,  // measure 31
1000
0010
1000
0000
0001
0010
0001
0000
1000
0000
0100
0000
1100
0000
0000
0000
,  // measure 32
0001
0100
0001
0000
1000
0010
1000
0000
0010
0000
0100
0000
0110
0000
0000
0000
,  // measure 33
1000
0100
0010
0000
0001
0010
0100
0000
1000
0000
1100
0000
0101
0000
0000
0000
,  // measure 34
0001
0100
0010
0000
1000
0010
0100
0000
0001
0000
0101
0000
0011
0000
0000
0000
,  // measure 35
0001
0010
0100
0000
1000
0100
0010
0000
0001
0000
1001
0000
0101
0000
0000
0000
,  // measure 36
1000
0010
0100
0000
0010
1000
0100
0000
0010
0000
0011
0000
0101
0000
1000
0000
,  // measure 37
1001
0000
0000
0000
;

//---------------dance-single - Chewi----------------
#NOTES:
     dance-single:
     Chewi:
     Medium:
     7:
     0.316,0.328,0.117,0.208,0.000: // measure 1
0000
0000
0000
0000
,  // measure 2
0000
0000
0000
0000
,  // measure 3
0000
0000
0000
0000
,  // measure 4
0000
0000
0000
0000
,  // measure 5
2000
3001
0002
1003
,  // measure 6
1000
0100
1000
0000
0001
0100
0001
0000
,  // measure 7
0200
0310
0020
0130
,  // measure 8
0010
1000
0010
0000
1000
0001
1000
0000
,  // measure 9
0002
0013
2000
3010
,  // measure 10
0010
0100
0010
0000
0100
0010
0100
0000
,  // measure 11
2000
3100
0002
0013
,  // measure 12
0001
0010
0001
0000
1000
0010
1000
0000
,  // measure 13
0001
0000
1001
0000
0000
1000
1000
0000
,  // measure 14
0010
0000
0110
0000
0000
0100
0100
0000
,  // measure 15
0010
1000
0100
0000
,  // measure 16
0010
0001
0100
0000
,  // measure 17
1100
0000
0010
0000
0000
0100
0100
0000
,  // measure 18
0101
0000
0010
0000
0000
1000
1000
0000
,  // measure 19
0001
0010
1000
0000
,  // measure 20
1000
0100
0001
0000
,  // measure 21
1000
0000
1000
0000
1000
0000
1000
0001
,  // measure 22
0100
0000
0100
0000
0100
0000
0100
0001
,  // measure 23
0010
0000
0010
0000
0010
0000
0010
0100
,  // measure 24
0020
0032
2003
3020
,  // measure 25
0130
0000
0100
0000
0100
0000
0100
0001
,  // measure 26
1000
0000
1000
0000
1000
0000
1000
0001
,  // measure 27
0010
0000
0010
0000
0010
0000
0010
0100
,  // measure 28
0020
0032
2003
3200
,  // measure 29
1300
0000
1000
0000
1000
0100
1000
0000
,  // measure 30
0001
0101
1000
1100
,  // measure 31
0001
0000
0001
0000
0001
0100
0001
0000
,  // measure 32
1000
1010
0001
0011
,  // measure 33
1000
0000
0001
0000
1000
0100
0010
0000
,  // measure 34
0001
0000
1000
0000
0001
0100
0010
0000
,  // measure 35
1000
0000
0010
0000
0100
0100
0100
0000
,  // measure 36
0001
0000
0010
0000
0100
0100
0100
0000
,  // measure 37
1001
0000
0000
0000
;

//---------------dance-single - Chewi----------------
#NOTES:
     dance-single:
     Chewi:
     Easy:
     4:
     0.186,0.234,0.091,0.156,0.000: // measure 1
0000
0000
0000
0000
,  // measure 2
0000
0000
0000
0000
,  // measure 3
0000
0000
0000
0000
,  // measure 4
0000
0000
0000
0000
,  // measure 5
1000
1000
1000
0000
,  // measure 6
1000
0001
1000
0000
,  // measure 7
0001
0001
0001
0000
,  // measure 8
0001
1000
0001
0000
,  // measure 9
1000
0100
1000
0000
,  // measure 10
0001
0100
0001
0000
,  // measure 11
1000
0010
1000
0000
,  // measure 12
0001
0010
0001
0000
,  // measure 13
2002
0000
3000
0003
,  // measure 14
0220
0000
0030
0300
,  // measure 15
0220
0000
0300
0030
,  // measure 16
2002
0000
0003
3000
,  // measure 17
1000
0100
0001
0000
,  // measure 18
0001
0100
1000
0000
,  // measure 19
1000
0010
0001
0000
,  // measure 20
0001
0010
1000
0000
,  // measure 21
2000
0000
0000
3000
,  // measure 22
1000
0001
1001
0000
,  // measure 23
0002
0000
0000
0003
,  // measure 24
1000
0001
1001
0000
,  // measure 25
0020
0000
0000
0030
,  // measure 26
0001
0100
1000
0000
,  // measure 27
0200
0000
0000
0300
,  // measure 28
0001
0010
1000
0000
,  // measure 29
1000
0100
1000
0000
,  // measure 30
1000
1000
1000
0000
,  // measure 31
0001
0100
0001
0000
,  // measure 32
0001
0001
0001
0000
,  // measure 33
1000
0100
0010
0000
,  // measure 34
0001
0100
0010
0000
,  // measure 35
1000
0010
0100
0000
,  // measure 36
0001
0010
0100
0000
,  // measure 37
1001
0000
0000
0000
;

//---------------dance-single - Chewi----------------
#NOTES:
     dance-single:
     Chewi:
     Beginner:
     1:
     0.078,0.140,0.065,0.052,0.000: // measure 1
0000
0000
0000
0000
,  // measure 2
0000
0000
0000
0000
,  // measure 3
0000
0000
0000
0000
,  // measure 4
0000
0000
0000
0000
,  // measure 5
1000
0000
0000
0000
,  // measure 6
0001
0000
0000
0000
,  // measure 7
1000
0000
0000
0000
,  // measure 8
0001
0000
0000
0000
,  // measure 9
1000
0000
0000
0000
,  // measure 10
0001
0000
0000
0000
,  // measure 11
1000
0000
0000
0000
,  // measure 12
0001
0000
0000
0000
,  // measure 13
1001
0000
0000
0000
,  // measure 14
0110
0000
0000
0000
,  // measure 15
0110
0000
0000
0000
,  // measure 16
1001
0000
0000
0000
,  // measure 17
1000
0000
0000
0000
,  // measure 18
0001
0000
0000
0000
,  // measure 19
1000
0000
0000
0000
,  // measure 20
0001
0000
0000
0000
,  // measure 21
2000
0000
0000
3000
,  // measure 22
1000
0000
0000
0000
,  // measure 23
0002
0000
0000
0003
,  // measure 24
0001
0000
0000
0000
,  // measure 25
0020
0000
0000
0030
,  // measure 26
0010
0000
0000
0000
,  // measure 27
0200
0000
0000
0300
,  // measure 28
0100
0000
0000
0000
,  // measure 29
1000
0000
0000
0000
,  // measure 30
1000
0000
0000
0000
,  // measure 31
0001
0000
0000
0000
,  // measure 32
0001
0000
0000
0000
,  // measure 33
1000
0000
0000
0000
,  // measure 34
0001
0000
0000
0000
,  // measure 35
1000
0000
0000
0000
,  // measure 36
0001
0000
0000
0000
,  // measure 37
1001
0000
0000
0000
;
