#TITLE:I Like (U.K. Mix);
#SUBTITLE:;
#ARTIST:矢井田瞳;
#TITLETRANSLIT:;
#SUBTITLETRANSLIT:;
#ARTISTTRANSLIT:Hitomi Yaida;
#CREDIT:Chewi☆;
#BANNER:I Like (U.K. Mix).png;
#BACKGROUND:I Like (U.K. Mix)-bg.png;
#LYRICSPATH:;
#CDTITLE:;
#MUSIC:I Like (U.K. Mix).mp3;
#OFFSET:-0.160;
#SAMPLESTART:72.158;
#SAMPLELENGTH:15.000;
#SELECTABLE:YES;
#BPMS:0.000=120.000;
#STOPS:;
#BGCHANGES:;

//---------------dance-single - Chewi----------------
#NOTES:
     dance-single:
     Chewi:
     Beginner:
     2:
     0.145,0.172,0.021,0.021,0.000: // measure 1
0000
0000
0000
0000
,  // measure 2
0000
0000
0000
0000
,  // measure 3
0000
0000
0000
0000
,  // measure 4
0000
0000
0000
0000
,  // measure 5
2000
0000
0000
3000
,  // measure 6
1000
0000
0000
0000
,  // measure 7
0002
0000
0000
0003
,  // measure 8
0001
0000
0000
0000
,  // measure 9
1000
0000
1000
0000
,  // measure 10
1000
0000
1000
0000
,  // measure 11
0001
0000
0001
0000
,  // measure 12
0001
0000
0001
0000
,  // measure 13
0100
0000
0100
0000
,  // measure 14
0100
0000
0100
0000
,  // measure 15
0010
0000
0010
0000
,  // measure 16
0010
0000
0010
0000
,  // measure 17
1000
0000
0100
0000
,  // measure 18
0010
0000
0001
0000
,  // measure 19
0001
0000
0100
0000
,  // measure 20
0010
0000
1000
0000
,  // measure 21
1000
0000
1000
0000
,  // measure 22
1000
0000
1000
0000
,  // measure 23
0001
0000
0001
0000
,  // measure 24
0001
0000
0001
0000
,  // measure 25
0010
0000
0010
0000
,  // measure 26
0010
0000
0010
0000
,  // measure 27
0100
0000
0100
0000
,  // measure 28
0100
0000
0100
0000
,  // measure 29
0100
0100
0100
0000
,  // measure 30
0010
0010
0010
0000
,  // measure 31
0001
0001
0001
0000
,  // measure 32
1000
1000
1000
0000
,  // measure 33
1000
1000
1000
0000
,  // measure 34
0010
0010
0010
0000
,  // measure 35
0100
0100
0100
0000
,  // measure 36
0001
0001
0001
0000
,  // measure 37
0001
0000
1000
0000
,  // measure 38
0010
0000
0100
0000
,  // measure 39
0001
0000
1000
0000
,  // measure 40
0100
0000
0010
0000
,  // measure 41
0001
0000
1000
0000
,  // measure 42
0001
0000
1001
0000
,  // measure 43
1000
0000
0010
0000
,  // measure 44
0100
0000
0110
0000
,  // measure 45
0100
0100
0100
0000
,  // measure 46
0010
0000
0010
0000
,  // measure 47
0001
0001
0001
0000
,  // measure 48
1000
0000
1000
0000
;

//---------------dance-single - Chewi----------------
#NOTES:
     dance-single:
     Chewi:
     Easy:
     5:
     0.223,0.221,0.062,0.000,0.000: // measure 1
0000
0000
0000
0000
,  // measure 2
0000
0000
0000
0000
,  // measure 3
0000
0000
0000
0000
,  // measure 4
0000
0000
0000
0000
,  // measure 5
1000
0100
0001
0000
,  // measure 6
0001
0010
1000
0000
,  // measure 7
1000
0010
0001
0000
,  // measure 8
0001
0100
1000
0000
,  // measure 9
1000
0100
1000
0000
,  // measure 10
0100
0001
0100
0000
,  // measure 11
0001
0010
0001
0000
,  // measure 12
0010
1000
0010
0000
,  // measure 13
1000
0001
1000
0000
,  // measure 14
0001
1000
0001
0000
,  // measure 15
1000
0010
1000
0000
,  // measure 16
0001
0010
0001
0000
,  // measure 17
0010
0010
0010
0000
,  // measure 18
0100
0010
0110
0000
,  // measure 19
0100
0100
0100
0000
,  // measure 20
1000
0001
1001
0000
,  // measure 21
0001
0100
1000
0010
,  // measure 22
0001
0000
1000
0000
,  // measure 23
1000
0100
0001
0010
,  // measure 24
1000
0000
0001
0000
,  // measure 25
1000
0001
0100
0010
,  // measure 26
0100
0000
0010
0000
,  // measure 27
0100
0010
1000
0001
,  // measure 28
1000
0000
0001
0000
,  // measure 29
1000
1000
1000
1000
,  // measure 30
0100
0100
0100
0100
,  // measure 31
0010
0010
0010
0010
,  // measure 32
0001
0001
0001
0001
,  // measure 33
0001
0100
0010
0001
,  // measure 34
0100
0100
0100
0100
,  // measure 35
0010
0110
0000
0000
,  // measure 36
1001
0000
0000
0000
,  // measure 37
1000
0100
1000
0100
,  // measure 38
0001
0100
0001
0100
,  // measure 39
0001
0010
0001
0010
,  // measure 40
1000
0010
1000
0010
,  // measure 41
1000
0001
0100
0010
,  // measure 42
1000
0001
0010
0100
,  // measure 43
1000
0100
0010
0001
,  // measure 44
1000
0100
0001
0100
,  // measure 45
0001
0100
0010
1000
,  // measure 46
0001
0010
1000
0010
,  // measure 47
1000
0010
0100
0001
,  // measure 48
1001
0000
0000
1001
0000
0000
0000
0000
;

//---------------dance-single - Chewi----------------
#NOTES:
     dance-single:
     Chewi:
     Medium:
     7:
     0.278,0.319,0.124,0.155,0.005: // measure 1
0000
0000
0000
0000
,  // measure 2
0000
0000
0000
0000
,  // measure 3
0000
0000
0000
0000
,  // measure 4
0000
0000
0000
0000
,  // measure 5
1000
0100
1000
0100
,  // measure 6
0001
0100
0001
0100
,  // measure 7
1000
0100
1000
0100
,  // measure 8
0001
0000
0000
1001
0000
0000
0000
0000
,  // measure 9
0001
0000
0001
0000
1000
0001
1000
0000
,  // measure 10
0010
0000
0100
0000
,  // measure 11
0100
0000
0100
0000
0010
0100
0010
0000
,  // measure 12
0010
0000
1000
0000
,  // measure 13
1000
0000
0001
0000
1000
0001
1000
0000
,  // measure 14
0001
0000
0010
0000
,  // measure 15
0100
0000
0010
0000
0100
0010
0100
0000
,  // measure 16
1000
0000
0000
1100
0000
0000
0000
0000
,  // measure 17
2000
3100
0002
0103
,  // measure 18
2000
3010
0002
0013
,  // measure 19
0010
0100
1000
0010
,  // measure 20
0100
0000
0000
0110
0000
0000
0000
0000
,  // measure 21
0010
0000
0010
0000
0010
1000
0001
0000
,  // measure 22
1001
0000
1000
0000
,  // measure 23
1000
0000
1000
0000
0001
1000
0100
0000
,  // measure 24
0010
0000
0110
0000
,  // measure 25
0100
0000
0100
0000
0100
0010
0001
0000
,  // measure 26
0001
0000
1001
0000
,  // measure 27
0001
1000
0010
0100
,  // measure 28
0001
0000
0000
1001
0000
0000
0000
0000
,  // measure 29
2000
3100
2000
3100
,  // measure 30
0002
0103
0002
0103
,  // measure 31
2000
3010
2000
3010
,  // measure 32
0002
0013
0002
0013
,  // measure 33
0010
0000
0100
0000
1000
0000
0001
0100
,  // measure 34
0000
0100
0000
0010
0000
0010
0000
1000
,  // measure 35
0000
2002
0000
3000
,  // measure 36
0020
0000
0000
0033
,  // measure 37
0001
0010
1000
0100
,  // measure 38
0001
0000
0001
0000
0001
0001
0001
0000
,  // measure 39
0001
0100
1000
0010
,  // measure 40
0001
0000
1000
0000
0001
1000
0001
0000
,  // measure 41
1000
0100
0010
1000
,  // measure 42
0100
0000
0100
0000
0100
0100
0100
0000
,  // measure 43
0010
0001
0100
0010
,  // measure 44
0001
0000
0001
0000
0001
0001
0001
0000
,  // measure 45
1000
1100
0001
0101
,  // measure 46
0100
0010
1000
0001
,  // measure 47
1000
1010
0001
0011
,  // measure 48
0010
0000
0000
0010
0000
0000
0010
0000
0000
0000
0000
0000
0000
0000
0000
0000
;

//---------------dance-single - Chewi----------------
#NOTES:
     dance-single:
     Chewi:
     Hard:
     10:
     0.406,0.417,0.331,0.176,0.026: // measure 1
0000
0000
0000
0000
,  // measure 2
0000
0000
0000
0000
,  // measure 3
0000
0000
0000
0000
,  // measure 4
0000
0000
0000
0000
,  // measure 5
1000
0000
0100
0000
1000
0100
0001
0000
,  // measure 6
0001
0000
0100
0000
0001
0100
1000
0000
,  // measure 7
0001
0000
1000
0000
0010
0100
0010
0000
,  // measure 8
0110
0000
0000
0110
0000
0000
0110
0000
0000
0000
0000
0000
0000
0000
0000
0000
,  // measure 9
0000
0010
1000
0200
0000
0320
0000
0030
,  // measure 10
0011
0000
1100
0000
,  // measure 11
0000
1000
0100
0020
0000
0032
0000
0003
,  // measure 12
0101
0000
1010
0000
,  // measure 13
0000
0010
0100
0002
0000
2003
0000
3000
,  // measure 14
1100
0000
0011
0000
,  // measure 15
0000
0001
0010
0100
1000
0010
0100
0001
,  // measure 16
0101
0000
0000
0101
0000
0000
0202
0000
0000
0000
0000
0000
0303
0000
0000
0000
,  // measure 17
0010
0100
0010
0000
1000
0001
1000
0000
,  // measure 18
0001
0100
0001
0000
1000
0100
1000
0000
,  // measure 19
0100
0010
0100
0000
0010
0001
0010
0000
,  // measure 20
0011
0000
0000
1100
0000
0000
0101
0000
0000
0000
0000
0000
0000
0000
0000
0000
,  // measure 21
0000
0100
0010
2000
0000
3002
0000
1003
,  // measure 22
0100
0000
0000
0000
0010
0001
0100
0000
,  // measure 23
0000
0001
0100
0020
0000
2030
0000
3010
,  // measure 24
0010
0100
0000
0001
0100
1000
0000
0000
,  // measure 25
0000
1000
0100
0020
0000
0032
0000
0013
,  // measure 26
0100
1000
0010
0000
0100
0001
0010
0000
,  // measure 27
0000
0001
0010
0100
1000
0010
0100
0001
,  // measure 28
0101
0000
0000
1010
0000
0000
0101
0000
0000
0000
0000
0000
0000
0000
0000
0000
,  // measure 29
1000
0100
1000
0100
0001
0100
0001
0100
,  // measure 30
1000
0100
1000
0100
0001
0100
0001
0100
,  // measure 31
1000
0010
1000
0010
0001
0010
0001
0010
,  // measure 32
1000
0010
0001
0010
1000
0100
0001
0100
,  // measure 33
1000
0010
0100
0001
1000
0010
0100
0101
,  // measure 34
0000
1010
0000
1001
0000
0011
0000
0110
,  // measure 35
0000
2002
0000
3000
,  // measure 36
0200
0000
0000
0303
,  // measure 37
0001
0100
0010
0100
0001
0010
0100
0000
,  // measure 38
1000
0000
1100
0000
1000
1000
1000
0000
,  // measure 39
1000
0100
0010
0100
1000
0010
0100
0001
,  // measure 40
0100
0000
0110
0000
1000
1000
1000
0000
,  // measure 41
0100
0001
0010
0100
0010
0001
0100
0010
,  // measure 42
0100
0000
0110
0000
1000
0001
1000
0000
,  // measure 43
1000
0010
0100
0001
0010
0100
1000
0000
,  // measure 44
0010
0000
1100
0000
0010
0100
0001
0000
,  // measure 45
0100
0010
1000
0001
0010
0100
1000
0000
,  // measure 46
0001
0000
1100
0000
1000
0001
0100
0000
,  // measure 47
0100
0010
1000
0001
0010
0100
1000
0001
,  // measure 48
1001
0000
0000
1001
0000
0000
1001
0000
0000
0000
0000
0000
0000
0000
0000
0000
;
