#TITLE:I FELL IN LOVE WITH THE DJ;
#SUBTITLE:;
#ARTIST:Che'Nelle;
#TITLETRANSLIT:;
#SUBTITLETRANSLIT:;
#ARTISTTRANSLIT:;
#GENRE:;
#CREDIT:Tiffany West;
#BANNER:I FELL IN LOVE WITH THE DJ.png;
#BACKGROUND:I FELL IN LOVE WITH THE DJ-bg.png;
#LYRICSPATH:;
#CDTITLE:cdtitle.png;
#MUSIC:I FELL IN LOVE WITH THE DJ.ogg;
#OFFSET:-0.586000;
#SAMPLESTART:57.056999;
#SAMPLELENGTH:12.000000;
#SELECTABLE:YES;
#BPMS:0.000000=102.000000
;
#STOPS:
;
#BGCHANGES:-1.172=I FELL IN LOVE WITH THE DJ.avi=1.000=1=0=1===CrossFade==,
144.000=I FELL IN LOVE WITH THE DJ-bg.png=1.000=1=0=1===CrossFade==,
99999=-nosongbg-=1.000=0=0=0 // don't automatically add -songbackground-
;
#KEYSOUNDS:;
#ATTACKS:;

//---------------dance-single - Tiffany West----------------
#NOTES:
     dance-single:
     Tiffany West:
     Beginner:
     1:
     0.082540,0.120000,0.011111,0.033333,0.000000,52.000000,51.000000,1.000000,3.000000,0.000000,0.000000,0.082540,0.120000,0.011111,0.033333,0.000000,52.000000,51.000000,1.000000,3.000000,0.000000,0.000000:
// measure 0
0000
0000
0000
0000
,  // measure 1
0000
0000
0000
0000
,  // measure 2
0002
0000
0000
0003
,  // measure 3
0001
0000
0000
0000
,  // measure 4
0020
0000
0000
0030
,  // measure 5
0010
0000
0000
0000
,  // measure 6
0200
0000
0000
0300
,  // measure 7
0100
0000
0000
0000
,  // measure 8
0001
0000
0001
0000
,  // measure 9
0001
0000
0000
0000
,  // measure 10
1000
0000
1000
0000
,  // measure 11
1000
0000
0000
0000
,  // measure 12
0010
0000
0010
0000
,  // measure 13
0010
0000
0000
0000
,  // measure 14
0100
0000
0100
0000
,  // measure 15
0100
0000
0000
0000
,  // measure 16
1000
0000
1000
0000
,  // measure 17
0001
0000
0001
0000
,  // measure 18
1000
0000
0000
0000
,  // measure 19
0001
0000
0000
0000
,  // measure 20
0100
0000
0100
0000
,  // measure 21
0010
0000
0010
0000
,  // measure 22
0100
0000
0000
0000
,  // measure 23
0010
0000
0000
0000
,  // measure 24
1000
0000
1000
0000
,  // measure 25
1000
0000
0000
0000
,  // measure 26
0100
0000
0100
0000
,  // measure 27
0100
0000
0000
0000
,  // measure 28
0010
0000
0010
0000
,  // measure 29
0010
0000
0000
0000
,  // measure 30
0001
0000
0001
0000
,  // measure 31
0001
0000
0000
0000
,  // measure 32
0001
0000
0001
0000
,  // measure 33
0010
0000
0010
0000
,  // measure 34
0001
0000
0010
0000
,  // measure 35
0100
0000
1000
0000
,  // measure 36
1001
0000
0000
0000
;

//---------------dance-single - Tiffany West----------------
#NOTES:
     dance-single:
     Tiffany West:
     Easy:
     3:
     0.000000,0.000000,0.000000,0.000000,0.000000,0.000000,0.000000,0.000000,0.000000,0.000000,0.000000,0.000000,0.000000,0.000000,0.000000,0.000000,0.000000,0.000000,0.000000,0.000000,0.000000,0.000000:
0000
0000
0000
0000
,
0000
0000
0000
0000
,
2000
3000
1000
0000
,
0020
0030
0010
0000
,
0200
0300
0100
0000
,
0002
0003
0001
0000
,
2000
3000
1000
0000
,
0200
0300
0100
0000
,
1000
0001
1000
0000
,
1001
0000
0110
0000
,
0100
0010
0100
0000
,
0010
0100
0010
0000
,
0001
1000
0001
0000
,
1001
0000
0110
0000
,
0100
0010
0100
0000
,
0010
0100
0010
0000
,
1000
0000
0100
0000
,
1000
0000
0010
0000
,
0100
0000
0001
0000
,
0010
0000
0001
0000
,
0001
0000
0100
0000
,
0001
0000
0010
0000
,
0100
0000
1000
0000
,
0010
0000
1000
0000
,
0010
0100
0010
0000
,
0110
0000
1001
0000
,
1000
0001
1000
0000
,
0001
1000
0001
0000
,
0100
0010
0100
0000
,
0110
0000
1001
0000
,
0001
1000
0001
0000
,
1000
0001
1000
0000
,
0002
0000
0103
0000
,
2000
0000
3100
0000
,
0002
0000
0013
0000
,
2000
0000
3010
0000
,
0010
0000
0000
0000
;

//---------------dance-single - Tiffany West----------------
#NOTES:
     dance-single:
     Tiffany West:
     Medium:
     7:
     0.000000,0.000000,0.000000,0.000000,0.000000,0.000000,0.000000,0.000000,0.000000,0.000000,0.000000,0.000000,0.000000,0.000000,0.000000,0.000000,0.000000,0.000000,0.000000,0.000000,0.000000,0.000000:
0000
0000
0000
0000
,
0000
0000
0000
0000
,
1000
0000
0000
1000
0000
0000
0000
0000
0001
0000
0000
0000
0100
0000
0000
0000
,
0100
0000
0000
0100
0000
0000
0000
0000
0010
0000
0000
0000
1000
0000
0000
0000
,
0001
0000
0000
0001
0000
0000
0000
0000
0010
0000
0000
0000
0100
0000
0000
0000
,
0010
0000
0000
0010
0000
0000
0000
0000
0100
0000
0000
0000
1000
0000
0000
0000
,
0001
0000
0000
0001
0000
0000
0000
0000
1000
0000
0000
0000
0001
0000
0000
0000
,
0100
0000
0000
0100
0000
0000
0000
0000
0010
0000
0000
0000
0010
0000
0000
0000
,
0200
0302
0203
0320
,
1030
1000
1000
0000
1000
1000
1000
0000
,
1000
0100
0001
0010
,
1000
0000
0100
0000
0100
0100
0100
0000
,
0200
2300
3200
0320
,
0130
0100
0100
0000
0100
0100
0100
0000
,
1000
0010
0001
0100
,
1000
0000
0100
0000
0100
0100
0100
0000
,
1000
0000
0010
0000
1000
0010
1000
0000
,
0010
0100
0001
1000
,
0001
0000
0010
0000
0001
0010
0001
0000
,
0010
0100
1000
0001
,
1000
0000
0100
0000
1000
0100
1000
0000
,
0010
0100
0010
1000
,
0001
0000
0100
0000
0001
0100
0001
0000
,
0010
0100
0010
0001
,
0002
0203
0302
0023
,
0130
0100
0100
0000
0100
0100
0100
0000
,
0001
0010
1000
0100
,
0001
0000
0010
0000
0010
0010
0010
0000
,
2000
3020
2030
3200
,
0310
0010
0010
0000
0010
0010
0010
0000
,
0001
0100
1000
0010
,
0001
0000
0100
0000
0100
0100
0100
0000
,
1000
0000
0000
1000
0000
0000
0000
0000
0001
0000
0000
0000
0100
0000
0000
0000
,
0100
0000
0000
0100
0000
0000
0000
0000
0010
0000
0000
0000
1000
0000
0000
0000
,
0001
0000
0000
0001
0000
0000
0000
0000
0010
0000
0000
0000
0100
0000
0000
0000
,
0010
0000
0000
0010
0000
0000
0000
0000
0010
0000
0010
0000
0010
0000
0000
0000
,
0110
0000
0000
0000
;

//---------------dance-single - Tiffany West----------------
#NOTES:
     dance-single:
     Tiffany West:
     Hard:
     12:
     0.000000,0.000000,0.000000,0.000000,0.000000,0.000000,0.000000,0.000000,0.000000,0.000000,0.000000,0.000000,0.000000,0.000000,0.000000,0.000000,0.000000,0.000000,0.000000,0.000000,0.000000,0.000000:
0000
0000
0000
0000
,
0000
0000
0000
0000
,
0000
0000
0000
0000
,
0000
0000
0000
0000
,
1000
0100
0000
0100
1000
0000
0000
0000
0010
0000
0100
0000
0001
0000
0010
0000
,
0001
0010
0000
0010
0001
0000
0000
0000
0100
0000
0010
0000
1000
0000
0100
0000
,
1000
0010
0000
0010
1000
0000
0000
0000
0100
0000
0010
0000
0001
0000
0010
0000
,
0001
0100
0000
0100
0001
0000
0000
0000
0010
0000
0100
0000
1000
0000
0100
0000
,
1000
1000
0001
0001
0100
0100
0010
0010
,
0100
0010
0100
0010
0100
0000
0000
0000
0010
0100
0010
0100
0010
0000
0000
0000
,
1010
0000
0000
1010
0000
0000
0001
0000
0011
0000
0000
0011
0000
0000
0010
0000
,
0110
0000
0000
0110
0000
0000
0100
0000
2000
0000
3020
0000
0032
0000
0003
0000
,
0010
0010
0100
0100
0001
0001
0010
0010
,
0100
0010
0100
0010
0100
0000
0000
0000
0010
0100
0010
0100
0010
0000
0000
0000
,
0011
0000
0000
0011
0000
0000
1000
0000
1010
0000
0000
1010
0000
0000
0010
0000
,
0110
0000
0000
0110
0000
0000
0100
0000
0002
0000
0023
0000
2030
0000
3000
0000
,
0010
0100
0010
0100
1000
0000
0000
0001
0000
1000
0001
0000
0100
0000
0000
0000
,
0010
0100
0010
0100
0001
1000
0001
1000
0001
0000
1001
0000
0110
0000
0000
0000
,
0100
1000
0100
0001
0100
0000
0000
0001
0000
1000
0001
0000
0010
0000
0000
0000
,
0100
1000
0100
0001
0100
0000
0000
1000
0000
0001
1000
0000
0100
0000
0000
0000
,
1000
0100
1000
0010
1000
0001
1000
0000
1100
0000
0110
0000
0011
0000
0000
0000
,
0001
0010
0001
0100
0001
1000
0001
0000
0101
0000
0110
0000
1010
0000
0000
0000
,
1000
0000
0010
0000
0001
0000
0010
1000
0010
1000
0000
0000
0010
0000
0000
0000
,
0100
0000
0001
0000
0100
0000
1000
0100
1000
0100
0000
0000
0001
0000
0000
0000
,
0001
0001
1000
1000
0010
0010
0100
0100
,
0010
0100
0010
0100
0010
0000
0000
0000
0100
0010
0100
0010
0100
0000
0000
0000
,
0101
0000
0000
0101
0000
0000
1000
0000
1100
0000
0000
1100
0000
0000
0100
0000
,
0110
0000
0000
0110
0000
0000
0010
0000
0002
0000
0203
0000
2300
0000
3000
0000
,
0100
0100
0010
0010
1000
1000
0100
0100
,
0010
0100
0010
0100
0010
0000
0000
0000
0100
0010
0100
0010
0100
0000
0000
0000
,
1100
0000
0000
1100
0000
0000
0001
0000
0101
0000
0000
0101
0000
0000
0100
0000
,
0110
0000
0000
0110
0000
0000
0010
0000
2000
0000
3200
0000
0302
0000
0003
0000
,
0100
1000
0010
0100
0001
0100
0101
0000
,
0100
0001
0010
0100
1000
0100
1100
0000
,
1001
0000
0000
1001
0000
0000
1000
0000
0001
0000
0100
0000
0100
0000
0010
0000
,
0110
0000
0000
0110
0000
0000
0000
0000
1001
0000
0110
0000
1001
0000
0000
0000
;
