#TITLE:I Don't Wanna Let Go (for mania mix);
#SUBTITLE:;
#ARTIST:xRGTMx as AlphaOmega;
#TITLETRANSLIT:;
#SUBTITLETRANSLIT:;
#ARTISTTRANSLIT:;
#GENRE:;
#CREDIT:Chewphoria~;
#MENUCOLOR:;
#METERTYPE:DDR;
#BANNER:I Don't Wanna Let Go (for mania mix).png;
#BACKGROUND:I Don't Wanna Let Go (for mania mix)-bg.png;
#LYRICSPATH:;
#CDTITLE:;
#MUSIC:I Don't Wanna Let Go (for mania mix).mp3;
#OFFSET:-5.540;
#SAMPLESTART:11.030;
#SAMPLELENGTH:15.000;
#SELECTABLE:YES;
#LISTSORT:;
#BPMS:0.000=175.000,48.000=87.500,96.000=175.000,144.000=87.500;
#STOPS:144.000=5.314
;
#BGCHANGES:;
#ATTACKS:;

//---------------dance-single - Chewphoria~----------------
#NOTES:
     dance-single:
     Chewphoria~:
     Hard:
     10:
     0.302,0.375,0.100,0.120,0.030: // measure 1
1000
0000
0001
0100
0000
0110
0000
0000
,  // measure 2
0000
0000
0000
0000
,  // measure 3
0001
0000
0010
1000
0000
1100
0000
0000
,  // measure 4
0000
0000
0000
0000
,  // measure 5
1000
0100
0010
0100
1000
0100
0010
0001
,  // measure 6
0100
0010
0100
0001
0100
0010
0100
0001
,  // measure 7
0010
0100
1000
0010
0100
0001
0010
0100
,  // measure 8
1000
0001
1000
0001
1000
0010
0100
0010
,  // measure 9
0010
0010
1000
1000
0100
0100
0010
0010
,  // measure 10
0001
0001
0010
0010
0100
0100
1000
1000
,  // measure 11
1000
0100
0010
0001
1000
0100
0010
0001
,  // measure 12
0100
0010
1000
0001
0010
0100
1000
0001
,  // measure 13
2000
0000
0000
0000
,  // measure 14
0000
3020
0000
0000
0000
0000
0000
0000
0000
0000
0000
0000
0000
0000
0000
0000
,  // measure 15
0000
0230
0000
0000
0000
0000
0000
0000
0000
0000
0000
0000
0000
0000
0000
0000
,  // measure 16
0000
0302
0000
0000
0000
0000
0000
0000
0000
0000
0000
0000
0000
0000
0000
0000
,  // measure 17
1003
0000
0010
0100
0000
0100
0001
0000
,  // measure 18
0010
0000
0001
0010
0000
0100
1000
0000
,  // measure 19
0010
0000
0100
0001
0000
0001
0100
0000
,  // measure 20
0010
0000
1000
0100
0000
0001
0010
0000
,  // measure 21
1000
0000
1000
0010
0000
1000
0010
0000
,  // measure 22
0100
0000
0001
0010
0000
0010
0100
0000
,  // measure 23
0010
0000
0001
0100
0000
0100
0010
0000
,  // measure 24
1000
0000
0001
1000
0000
1000
0001
0000
,  // measure 25
0101
0100
0100
0100
,  // measure 26
0110
0010
0010
0010
,  // measure 27
1010
0010
0010
0010
,  // measure 28
1100
0100
0100
0100
,  // measure 29
0101
0100
0100
0100
,  // measure 30
0011
0010
0010
0010
,  // measure 31
1001
0001
0001
0001
,  // measure 32
1001
1000
1000
1000
,  // measure 33
1000
1000
0010
0010
0100
0100
0001
0001
,  // measure 34
0100
0100
0010
0010
1000
1000
0001
0001
,  // measure 35
0010
0001
0010
0001
0100
0001
0100
0001
,  // measure 36
0100
0010
1000
0001
0010
0100
1000
0001
,  // measure 37
1000
2000
0000
0000
0000
0000
0000
0000
0000
0000
0000
0000
0000
0000
0000
0000
,  // measure 38
0000
3002
0000
0000
0000
0000
0000
0000
0000
0000
0000
0000
0000
0000
0000
0000
,  // measure 39
0000
0203
0000
0000
0000
0000
0000
0000
,  // measure 40
0000
0320
0000
0000
0000
0000
0000
0000
,  // measure 41
0000
2030
0000
0000
0000
0000
0000
0000
,  // measure 42
0000
3002
0000
0000
0000
0000
0000
0000
,  // measure 43
0000
0023
0000
0000
0000
0000
0000
0000
0000
0000
0000
0000
0000
0000
0000
0000
,  // measure 44
0000
0032
0000
0000
0000
0000
0000
0000
,  // measure 45
0003
0000
0000
0000
;

//---------------dance-single - Chewphoria~----------------
#NOTES:
     dance-single:
     Chewphoria~:
     Medium:
     7:
     0.240,0.353,0.100,0.120,0.030: // measure 1
1000
0000
0000
0001
0000
0001
0000
0000
,  // measure 2
0000
0000
0000
0000
,  // measure 3
0001
0000
0000
1000
0000
1000
0000
0000
,  // measure 4
0000
0000
0000
0000
,  // measure 5
0010
1000
0100
0000
0010
0000
0001
0000
,  // measure 6
0010
0001
0100
0000
0010
0000
1000
0000
,  // measure 7
0001
1000
0001
0000
1000
0000
1100
0000
,  // measure 8
1000
0001
1000
0000
0001
0000
0101
0000
,  // measure 9
0100
0010
0100
0010
0100
0000
0010
0000
,  // measure 10
1000
0001
1000
0001
1000
0000
0001
0000
,  // measure 11
0011
1100
0101
1010
,  // measure 12
1000
0001
0010
0000
0001
1000
0010
0000
,  // measure 13
2000
0000
0000
0000
,  // measure 14
0000
3020
0000
0000
0000
0000
0000
0000
0000
0000
0000
0000
0000
0000
0000
0000
,  // measure 15
0000
0230
0000
0000
0000
0000
0000
0000
0000
0000
0000
0000
0000
0000
0000
0000
,  // measure 16
0000
0302
0000
0000
0000
0000
0000
0000
0000
0000
0000
0000
0000
0000
0000
0000
,  // measure 17
1003
0000
0010
0000
0000
0010
0000
0000
,  // measure 18
0001
0000
0100
0000
0000
0100
0000
0000
,  // measure 19
1000
0000
0010
0000
0000
0010
0000
0000
,  // measure 20
0010
0000
1000
0000
0000
1000
0000
0000
,  // measure 21
1000
0000
0001
0000
0000
0001
0000
0000
,  // measure 22
0100
0000
0001
0000
0000
0001
0000
0000
,  // measure 23
0010
0000
0100
0000
0000
0100
0000
0000
,  // measure 24
1000
0000
0100
0000
0000
0100
0000
0000
,  // measure 25
1010
0010
0010
0010
,  // measure 26
0010
0010
0010
0010
,  // measure 27
0101
0100
0100
0100
,  // measure 28
0100
0100
0100
0100
,  // measure 29
1001
0001
0001
0001
,  // measure 30
0001
0001
0001
0001
,  // measure 31
0110
0010
0010
0010
,  // measure 32
0010
0010
0010
0010
,  // measure 33
0010
0100
0010
0100
0010
0100
0010
0000
,  // measure 34
0001
1000
0001
1000
0001
1000
0001
0000
,  // measure 35
0010
0100
0010
0100
0010
0100
0010
0000
,  // measure 36
0001
1000
0001
1000
0001
1000
0001
1000
,  // measure 37
0001
2000
0000
0000
0000
0000
0000
0000
0000
0000
0000
0000
0000
0000
0000
0000
,  // measure 38
0000
3002
0000
0000
0000
0000
0000
0000
0000
0000
0000
0000
0000
0000
0000
0000
,  // measure 39
0000
0203
0000
0000
0000
0000
0000
0000
,  // measure 40
0000
0320
0000
0000
0000
0000
0000
0000
,  // measure 41
0000
2030
0000
0000
0000
0000
0000
0000
,  // measure 42
0000
3002
0000
0000
0000
0000
0000
0000
,  // measure 43
0000
0023
0000
0000
0000
0000
0000
0000
0000
0000
0000
0000
0000
0000
0000
0000
,  // measure 44
0000
0032
0000
0000
0000
0000
0000
0000
,  // measure 45
0003
0000
0000
0000
;

//---------------dance-single - Chewphoria~----------------
#NOTES:
     dance-single:
     Chewphoria~:
     Easy:
     5:
     0.205,0.217,0.020,0.140,0.000: // measure 1
1000
1000
1000
0000
,  // measure 2
0010
0010
0010
0000
,  // measure 3
0001
0001
0001
0000
,  // measure 4
0100
0100
0100
0000
,  // measure 5
0010
0100
0010
0100
,  // measure 6
0001
1000
0001
1000
,  // measure 7
0010
1000
0010
1000
,  // measure 8
0100
1000
0100
1000
,  // measure 9
1000
0100
0010
0001
,  // measure 10
1000
0100
0010
0001
,  // measure 11
1000
0001
0100
0001
,  // measure 12
0100
0001
1000
0100
,  // measure 13
0120
0000
0000
0000
,  // measure 14
0032
0000
0000
0000
,  // measure 15
0203
0000
0000
0000
,  // measure 16
0320
0000
0000
0000
,  // measure 17
2030
0001
0000
0001
,  // measure 18
3002
1000
0000
1000
,  // measure 19
0023
0100
0000
0100
,  // measure 20
0230
0010
0000
0010
,  // measure 21
0302
0100
0000
0100
,  // measure 22
2003
0100
0000
0100
,  // measure 23
3020
0100
0000
0100
,  // measure 24
0230
0001
0000
0001
,  // measure 25
0301
0001
0001
0001
,  // measure 26
0010
0010
0010
0010
,  // measure 27
0100
0100
0100
0100
,  // measure 28
1000
1000
1000
1000
,  // measure 29
0010
0010
0010
0010
,  // measure 30
0001
0001
0001
0001
,  // measure 31
0100
0100
0100
0100
,  // measure 32
1000
1000
1000
1000
,  // measure 33
0020
0100
0100
0100
,  // measure 34
0100
0100
0100
0130
,  // measure 35
0002
1000
1000
1000
,  // measure 36
1000
1000
1003
0000
,  // measure 37
1001
0000
0000
0000
,  // measure 38
0000
1000
0000
0000
,  // measure 39
0000
0100
0000
0000
,  // measure 40
0000
0001
0000
0000
,  // measure 41
0000
0010
0000
0000
,  // measure 42
0000
1000
0000
0000
,  // measure 43
0000
0100
0000
0000
,  // measure 44
0000
1000
0000
0000
;

//---------------dance-single - Chewphoria~----------------
#NOTES:
     dance-single:
     Chewphoria~:
     Beginner:
     1:
     0.086,0.108,0.040,0.060,0.000: // measure 1
2000
0000
0000
0000
,  // measure 2
3000
0000
0000
0000
,  // measure 3
0002
0000
0000
0000
,  // measure 4
0003
0000
0000
0000
,  // measure 5
0010
0000
0100
0000
,  // measure 6
0010
0000
0100
0000
,  // measure 7
1000
0000
0001
0000
,  // measure 8
1000
0000
0001
0000
,  // measure 9
0002
0000
0000
0003
,  // measure 10
0002
0000
0000
0003
,  // measure 11
2000
0000
0000
3000
,  // measure 12
2000
0000
0000
3000
,  // measure 13
1000
0000
0000
0000
,  // measure 14
0010
0000
0000
0000
,  // measure 15
0100
0000
0000
0000
,  // measure 16
0001
0000
0000
0000
,  // measure 17
1001
0000
0000
0000
,  // measure 18
0100
0000
0000
0000
,  // measure 19
0001
0000
0000
0000
,  // measure 20
0010
0000
0000
0000
,  // measure 21
1000
0000
0000
0000
,  // measure 22
0100
0000
0000
0000
,  // measure 23
0010
0000
0000
0000
,  // measure 24
0001
0000
0000
0000
,  // measure 25
1000
0000
0001
0000
,  // measure 26
1000
0000
0000
0000
,  // measure 27
0100
0000
0010
0000
,  // measure 28
0100
0000
0000
0000
,  // measure 29
0100
0000
0001
0000
,  // measure 30
0100
0000
0000
0000
,  // measure 31
0010
0000
1000
0000
,  // measure 32
0010
0000
0000
0000
,  // measure 33
1001
0000
0000
0000
,  // measure 34
1000
0000
0000
0000
,  // measure 35
1001
0000
0000
0000
,  // measure 36
0001
0000
0000
0000
,  // measure 37
0110
0000
0000
0000
,  // measure 38
0000
1000
0000
0000
,  // measure 39
0000
0001
0000
0000
,  // measure 40
0000
0100
0000
0000
,  // measure 41
0000
0010
0000
0000
,  // measure 42
0000
1000
0000
0000
,  // measure 43
0000
0100
0000
0000
,  // measure 44
0000
0001
0000
0000
;
